<?xml version="1.0" standalone="no"?>
<!DOCTYPE svg PUBLIC "-//W3C//DTD SVG 1.1//EN" "http://www.w3.org/Graphics/SVG/1.1/DTD/svg11.dtd" >
<svg xmlns="http://www.w3.org/2000/svg">
<metadata></metadata>
<defs>
<font id="delta_jaegerbookitalic" horiz-adv-x="1150" >
<font-face units-per-em="2048" ascent="1638" descent="-410" />
<missing-glyph horiz-adv-x="555" />
<glyph horiz-adv-x="2048" />
<glyph horiz-adv-x="2048" />
<glyph unicode="&#xd;" horiz-adv-x="681" />
<glyph unicode=" "  horiz-adv-x="555" />
<glyph unicode="&#x09;" horiz-adv-x="555" />
<glyph unicode="&#xa0;" horiz-adv-x="555" />
<glyph unicode="!" horiz-adv-x="512" d="M-6 118.5q0 57.5 41 96.5t94 39q55 0 95 -38t40 -97q0 -55 -39 -95t-96 -40q-55 0 -95 38.5t-40 96zM106 412l250 1034h254l-282 -948z" />
<glyph unicode="&#x22;" horiz-adv-x="720" d="M238 907l94 613h217l-234 -613h-77zM590 907l94 613h217l-233 -613h-78z" />
<glyph unicode="#" horiz-adv-x="1368" d="M80 455l45 172h297l61 215h-299l47 176h304l124 428h185l-127 -428h192l123 428h182l-124 -428h299l-48 -176h-303l-61 -215h309l-45 -172h-315l-133 -455h-183l135 455h-192l-135 -455h-182l135 455h-291zM602 627h193l63 215h-192z" />
<glyph unicode="$" horiz-adv-x="1024" d="M-39 74l59 213q147 -96 334 -97q119 0 201 61.5t82 164.5q0 49 -26.5 93t-53.5 68.5t-88 73.5l-88 72q-139 113 -139 274q0 156 115.5 269.5t304.5 130.5l65 231h188l-67 -237q131 -19 244 -68l-58 -207q-139 98 -272 98q-102 0 -178 -51t-76 -153q0 -59 35 -105.5 t102 -103.5l82 -68q176 -145 176 -319q0 -176 -135 -290t-293 -120l-67 -246h-191l70 244q-195 18 -326 72z" />
<glyph unicode="%" horiz-adv-x="1867" d="M135 776q0 240 133 447q123 193 332 192q150 0 214.5 -83t64.5 -214q0 -106 -40 -246.5t-116 -242.5q-113 -152 -303 -152q-147 0 -216 86t-69 213zM319 758q0 -137 115 -137q100 0 156 114q51 98 77.5 221.5t26.5 182.5q0 133 -104 133q-98 0 -170 -135 q-39 -76 -70 -189.5t-31 -189.5zM455 0l870 1399h191l-875 -1399h-186zM1085 283q0 240 134 446q123 193 331 193q150 0 214.5 -83t64.5 -214q0 -106 -40 -246.5t-116 -243.5q-113 -152 -303 -151q-147 0 -216 86t-69 213zM1270 264q0 -137 114 -137q100 0 156 115 q51 98 78 221t27 182q0 133 -105 133q-98 0 -170 -135q-39 -76 -69.5 -189.5t-30.5 -189.5z" />
<glyph unicode="&#x26;" horiz-adv-x="1323" d="M47 369q0 168 108.5 287.5t301.5 170.5q-88 131 -88 258q0 152 108 263q125 125 326 125q168 0 280.5 -92.5t112.5 -245.5q0 -68 -22.5 -127.5t-64.5 -101.5t-80 -72.5t-90 -53t-71.5 -30t-48.5 -15.5l494 -629l-187 -147l-186 236l-190 -191q-90 -35 -248 -35 q-35 0 -81 7.5t-114.5 33t-124 66.5t-95.5 116.5t-40 176.5zM307 387q0 -90 71 -162.5t230 -72.5q139 -1 307 77l-342 439q-266 -76 -266 -281zM612 1106q0 -96 84 -219q33 6 74 21.5t88 44t79 77.5t32 109q0 72 -47.5 120t-118.5 48q-82 0 -136.5 -59.5t-54.5 -141.5z" />
<glyph unicode="'" horiz-adv-x="368" d="M238 907l94 613h217l-234 -613h-77z" />
<glyph unicode="(" horiz-adv-x="589" d="M70 317q0 514 319 945q143 188 293 307h217q-250 -258 -364 -455q-111 -190 -174.5 -420.5t-63.5 -449.5q0 -273 102 -543h-192q-137 270 -137 616z" />
<glyph unicode=")" horiz-adv-x="589" d="M-252 -297q233 233 365 455q113 188 174 417.5t61 450.5q0 277 -100 543h192q137 -270 138 -617q0 -512 -320 -942q-137 -186 -293 -307h-217z" />
<glyph unicode="*" horiz-adv-x="768" d="M221 1245l82 123l191 -131l61 223l139 -39l-57 -217l227 21l10 -144l-233 -24l86 -215l-139 -56l-86 218l-185 -144l-92 113l183 147z" />
<glyph unicode="+" horiz-adv-x="1482" d="M193 535l57 208h424l117 441h253l-116 -441h424l-56 -208h-426l-118 -447h-254l118 447h-423z" />
<glyph unicode="," horiz-adv-x="425" d="M-221 -281l291 492h247l-383 -492h-155z" />
<glyph unicode="-" horiz-adv-x="724" d="M-16 451l174 167h581l-172 -167h-583z" />
<glyph unicode="." horiz-adv-x="425" d="M-10 121q0 55 40 94t97 39q55 0 94 -40t39 -97q0 -55 -39 -94t-96 -39t-96 41t-39 96z" />
<glyph unicode="/" horiz-adv-x="768" d="M-141 0l907 1446h238l-908 -1446h-237z" />
<glyph unicode="0" d="M70 420q0 188 74.5 410.5t189.5 363.5q182 223 432 223q104 0 182 -40t118 -93t63.5 -125t28.5 -116t5 -82q0 -215 -96 -465q-66 -182 -170 -308q-170 -209 -420 -208q-63 0 -125.5 17t-130 61t-109.5 137.5t-42 224.5zM317 395q0 -113 48.5 -174t136.5 -61 q207 0 352 471q68 236 68 391q0 25 -5.5 54.5t-20.5 69.5t-54 66.5t-94 26.5q-72 0 -140 -55q-117 -98 -204 -356.5t-87 -432.5z" />
<glyph unicode="1" d="M328 0l299 1104l-252 -111l59 217l524 215l-387 -1425h-243z" />
<glyph unicode="2" d="M-45 0l47 176l608 508q66 55 108 96t83 112t41 136q0 94 -62.5 148.5t-156.5 54.5q-158 0 -377 -197l69 262q166 123 375 123q170 0 288 -101t118 -267q0 -147 -96.5 -272.5t-254.5 -250.5l-428 -342h664l-182 -186h-844z" />
<glyph unicode="3" d="M10 63l58 209q174 -104 329 -104q92 0 159 30.5t97.5 78t44 86t13.5 71.5q0 111 -90.5 172.5t-223.5 61.5h-61l151 163q20 -4 66 -4q90 0 183 60.5t93 171.5q0 80 -57 126t-135 46q-66 0 -132.5 -31t-109.5 -64.5t-100 -88.5l70 258q170 115 337 114q156 0 263.5 -92 t107.5 -237q0 -47 -12 -92.5t-44 -97.5t-99.5 -98t-163.5 -75q217 -90 217 -303q0 -72 -31 -144.5t-92.5 -142t-176 -113.5t-261.5 -44q-215 0 -400 83z" />
<glyph unicode="4" d="M6 342l55 160l764 897h330l-235 -879h182l-141 -178h-93l-90 -342h-237l90 342h-625zM315 520h369l197 682z" />
<glyph unicode="5" d="M-4 72l57 211q158 -113 336 -113q133 0 241.5 81t108.5 214q0 137 -112.5 206.5t-278.5 69.5q-53 0 -135 -8l285 666h710l-51 -185h-495l-136 -317q47 -2 98.5 -11t121 -38t123 -73t91 -123t37.5 -179q0 -193 -145 -332q-166 -162 -455 -161q-186 0 -401 92z" />
<glyph unicode="6" d="M113 432q0 150 61.5 297.5t147.5 255t189 199.5t178 142t124 73h410q-289 -125 -454 -251t-284 -317q111 55 224 56q174 0 269 -110.5t95 -266.5q0 -205 -129 -356q-145 -174 -391 -174q-209 0 -324.5 130t-115.5 322zM358 399q0 -102 53.5 -172.5t143.5 -70.5 q96 0 160.5 67.5t86 140t21.5 136.5q0 121 -64.5 171t-137.5 50q-119 0 -191 -97.5t-72 -224.5z" />
<glyph unicode="7" d="M119 0l762 1214h-645l51 185h983l-881 -1399h-270z" />
<glyph unicode="8" d="M51 369q0 145 102.5 258.5t245.5 134.5q-143 100 -143 260q0 152 115 262q141 135 374 135q168 0 288 -94t120 -256q0 -80 -34 -146.5t-85 -106.5t-92 -62.5t-72 -30.5q45 -31 73 -54.5t64.5 -91t36.5 -151.5q0 -201 -155.5 -323.5t-366.5 -122.5q-279 0 -403 176 q-68 94 -68 213zM303 373q0 -57 20.5 -99.5t47 -64t61.5 -33.5t55.5 -15t36.5 -3q115 0 194 90t79 203q0 92 -62.5 148t-154.5 56q-117 0 -197 -82.5t-80 -199.5zM494 987q0 -55 22.5 -94t58 -53.5t58 -19.5t43.5 -5q84 0 160.5 63t76.5 169q0 84 -50 134t-136 50 q-102 0 -167.5 -73t-65.5 -171z" />
<glyph unicode="9" d="M10 0q76 29 164 74t196.5 114.5t210 169t167.5 209.5q-111 -55 -220 -55q-166 0 -266 105.5t-100 271.5q0 242 154.5 386t367.5 144q219 0 327.5 -134t108.5 -327q0 -109 -34.5 -223t-110.5 -242t-216 -257.5t-333 -235.5h-416zM414 901q0 -119 63.5 -169t134.5 -50 q94 0 168 72q92 89 92 239q0 92 -45 169t-153 77q-96 0 -172 -88q-88 -102 -88 -250z" />
<glyph unicode=":" horiz-adv-x="512" d="M12 119q0 55 40 95t95 40q57 0 96.5 -40t39.5 -95q0 -57 -39 -96t-96.5 -39t-96.5 38.5t-39 96.5zM213 891q0 55 40 95t95 40q57 0 96 -40t39 -95q0 -59 -38.5 -97t-96 -38t-96.5 39t-39 96z" />
<glyph unicode=";" horiz-adv-x="512" d="M-225 -281l288 492h250l-385 -492h-153zM229 891q0 55 40 95t96 40q57 0 96 -40t39 -95q0 -59 -39 -97t-96.5 -38t-96.5 39t-39 96z" />
<glyph unicode="&#x3c;" horiz-adv-x="1482" d="M217 526l66 244l1079 469l-72 -260l-811 -340l629 -344l-64 -238z" />
<glyph unicode="=" horiz-adv-x="1482" d="M143 299l58 219h1077l-59 -219h-1076zM256 719l57 219h1078l-60 -219h-1075z" />
<glyph unicode="&#x3e;" horiz-adv-x="1482" d="M174 63l72 263l811 338l-629 344l64 237l827 -469l-66 -244z" />
<glyph unicode="?" horiz-adv-x="854" d="M119 118.5q0 55.5 40 95.5t97 40q55 0 94 -40t39 -95.5t-39 -95t-96 -39.5t-96 39.5t-39 95zM213 420l121 446q2 0 21.5 -1t35.5 -1q98 0 171 25.5t106.5 65.5t49 76t15.5 71q0 76 -59.5 128t-145.5 52q-113 0 -292 -86l61 229q145 51 293 52q176 0 288.5 -96.5 t112.5 -252.5q0 -100 -43 -181t-113.5 -129t-149.5 -75.5t-159 -33.5l-53 -193z" />
<glyph unicode="@" horiz-adv-x="1789" d="M137 485q0 410 276.5 691.5t684.5 281.5q295 0 472 -156.5t177 -418.5q0 -283 -169 -511.5t-376 -228.5q-166 0 -178 162l-145 -149l-66 -4q-143 0 -220 75.5t-77 214.5q0 102 44 216t116 200q174 207 444 207q154 0 301 -66l-151 -460q-49 -143 -49 -189q0 -55 53 -55 q45 0 98 57q94 96 150.5 233.5t56.5 270.5q0 219 -133 343t-371 124q-322 0 -541 -235.5t-219 -583.5q0 -274 179.5 -441t472.5 -167q342 -1 649 243l-82 -225q-281 -170 -612 -170q-358 0 -571.5 201.5t-213.5 539.5zM717 457q0 -164 145 -164q74 0 164 63l180 543 q-61 20 -116 21q-201 0 -310 -220q-63 -131 -63 -243z" />
<glyph unicode="A" horiz-adv-x="1366" d="M-147 0l958 1446h283l159 -1446h-258l-39 362h-587l-232 -362h-284zM485 549h457l-59 625z" />
<glyph unicode="B" horiz-adv-x="1193" d="M0 0l389 1446h416q186 0 289.5 -92t103.5 -236q0 -49 -15.5 -99t-53 -107.5t-120.5 -102.5t-200 -64q123 -20 194.5 -106t71.5 -203q0 -102 -54 -195.5t-140 -150.5q-90 -57 -184.5 -73.5t-235.5 -16.5h-461zM305 188h162q55 0 110.5 12.5t113 40t92 84t34.5 132.5 q0 215 -268 215h-113zM440 688l152 158q92 0 160.5 19.5t103.5 46t56.5 62.5t26.5 61.5t5 49.5q0 168 -244 168h-106z" />
<glyph unicode="C" horiz-adv-x="1409" d="M139 627q0 164 67.5 317.5t186.5 269.5q106 106 283.5 187.5t423.5 81.5q223 0 428 -64l-58 -217q-166 92 -378 92q-299 0 -490.5 -199.5t-191.5 -451.5q0 -250 153.5 -371.5t380.5 -121.5q192 0 428 92l-235 -244q-129 -35 -256 -35q-305 0 -498 146q-119 90 -181.5 227 t-62.5 291z" />
<glyph unicode="D" horiz-adv-x="1492" d="M2 0l387 1446h445q88 0 168.5 -14.5t165.5 -55.5t145.5 -103.5t99.5 -168t39 -242.5q0 -102 -23.5 -210.5t-86 -227.5t-155.5 -211t-249 -152.5t-352 -60.5h-584zM315 195h256q152 0 273 56t194.5 152.5t111.5 214t38 248.5q0 51 -5 93t-29 98.5t-63.5 95.5t-118.5 66.5 t-186 27.5h-188z" />
<glyph unicode="E" horiz-adv-x="1110" d="M0 0l389 1446h854l-55 -199h-590l-106 -397h512l-54 -199h-510l-123 -452h717l-192 -199h-842z" />
<glyph unicode="F" horiz-adv-x="1024" d="M0 0l391 1446h864l-53 -199h-600l-113 -411h508l-53 -201h-506l-172 -635h-266z" />
<glyph unicode="G" horiz-adv-x="1622" d="M141 631q0 313 221 555q272 297 756 297q248 0 510 -86l-57 -215q-84 37 -130 55t-140.5 39.5t-186.5 21.5q-283 0 -481 -170q-129 -111 -177 -245.5t-48 -241.5q0 -240 149.5 -368t366.5 -128q131 0 229 48l96 356h-387l172 182h518l-176 -661q-244 -106 -499 -107 q-451 0 -644 318q-92 158 -92 350z" />
<glyph unicode="H" horiz-adv-x="1492" d="M0 0l393 1446h258l-157 -584h680l157 584h258l-387 -1446h-260l176 664h-676l-178 -664h-264z" />
<glyph unicode="I" horiz-adv-x="555" d="M0 0l387 1446h260l-385 -1446h-262z" />
<glyph unicode="J" horiz-adv-x="768" d="M-133 41l153 168q70 -37 105 -37q82 0 128 73.5t83 209.5l264 991h266l-284 -1067q-23 -86 -54.5 -151.5t-84 -127t-133.5 -95.5t-187 -34q-123 0 -256 70z" />
<glyph unicode="K" horiz-adv-x="1280" d="M0 0l393 1446h258l-178 -651l692 651h312l-736 -692l449 -754h-285l-440 756l-205 -756h-260z" />
<glyph unicode="L" horiz-adv-x="1110" d="M0 0l389 1446h264l-338 -1249h717l-188 -197h-844z" />
<glyph unicode="M" horiz-adv-x="1878" d="M-70 0l551 1446h279l151 -983l676 983h289l-223 -1446h-260l198 1120l-774 -1120h-63l-170 1122l-396 -1122h-258z" />
<glyph unicode="N" horiz-adv-x="1579" d="M0 0l389 1446h252l530 -977l254 977h248l-391 -1454h-100l-633 1134l-297 -1126h-252z" />
<glyph unicode="O" horiz-adv-x="1662" d="M139 602q0 299 166 537q117 168 289 256t377 88q305 0 479 -183.5t174 -457.5q0 -217 -91 -399.5t-206 -282.5q-227 -197 -539 -197q-279 0 -464 167t-185 472zM408 604q0 -80 20.5 -153.5t64.5 -141t125.5 -108.5t188.5 -41q174 0 303 106.5t189.5 260t60.5 321.5 q0 193 -102.5 318.5t-292.5 125.5q-117 0 -214.5 -49t-160 -125t-104.5 -170t-60 -181t-18 -163z" />
<glyph unicode="P" horiz-adv-x="1193" d="M0 0l387 1446h393q129 0 230.5 -31t175.5 -118t74 -224t-82 -254q-162 -227 -553 -227q-106 0 -197 16l-162 -608h-266zM434 631l182 162q33 -4 68 -5q43 0 90 12.5t98.5 41t84 84t32.5 129.5q0 198 -275 198h-3h-109z" />
<glyph unicode="Q" horiz-adv-x="1662" d="M139 600q0 63 13.5 144t49.5 193t118.5 224.5t199.5 190.5q199 131 451 131q266 0 436 -140q106 -88 161.5 -220t55.5 -279q0 -55 -10 -123t-37 -165t-90.5 -200.5t-153.5 -183.5l244 -299l-178 -149l-258 313q-182 -72 -355 -72q-307 0 -477 181.5t-170 453.5zM408 600 q0 -76 20.5 -148.5t64.5 -140t124.5 -109.5t187.5 -42q174 0 306 108.5t192.5 264t60.5 325.5q0 186 -104.5 311t-296.5 125q-231 0 -385 -192q-78 -96 -124 -236.5t-46 -265.5z" />
<glyph unicode="R" horiz-adv-x="1280" d="M0 0l385 1446h395q90 0 170 -19.5t150.5 -60.5t111.5 -116.5t41 -178.5q0 -150 -102 -263.5t-252 -150.5l266 -657h-270l-246 627q-51 -6 -106 -6q-57 0 -119 6l-170 -627h-254zM428 647l182 162q37 -4 72 -4q121 0 213 66.5t92 181.5q0 92 -66.5 145t-199.5 53h-129z " />
<glyph unicode="S" horiz-adv-x="1067" d="M-25 76l62 231q166 -147 354 -147q82 0 141.5 26.5t88 68.5t41 81t12.5 78q0 82 -40 137t-122 125l-92 80q-150 135 -150 305q0 182 142.5 302t355.5 120q207 -1 367 -97l-58 -215q-141 119 -293 119q-121 0 -185 -69.5t-64 -151.5q0 -102 122 -213l131 -119 q156 -141 156 -317q0 -98 -49 -197q-68 -131 -199 -194.5t-290 -63.5q-229 0 -431 111z" />
<glyph unicode="T" d="M199 1247l53 199h1128l-53 -199h-420l-334 -1247h-262l334 1247h-446z" />
<glyph unicode="U" horiz-adv-x="1536" d="M139 430q0 109 37 244l209 772h264l-209 -776q-37 -139 -37 -226q0 -121 80 -200.5t226 -79.5q180 0 275 102.5t155 319.5l233 860h264l-254 -942q-70 -254 -225.5 -397.5t-451.5 -143.5q-98 0 -190.5 23.5t-180.5 74t-141.5 145.5t-53.5 224z" />
<glyph unicode="V" horiz-adv-x="1409" d="M244 1446h260l100 -1149l754 1149h293l-1002 -1446h-250z" />
<glyph unicode="W" horiz-adv-x="1921" d="M209 0l37 1446h250l-54 -1135l727 1143h45l134 -1141l555 1133h258l-742 -1446h-252l-106 934l-604 -934h-248z" />
<glyph unicode="X" horiz-adv-x="1366" d="M-147 0l747 766l-326 680h273l231 -498l482 498h309l-695 -709l355 -737h-273l-260 549l-534 -549h-309z" />
<glyph unicode="Y" horiz-adv-x="1323" d="M238 1446h266l213 -684l555 684h299l-785 -924l-137 -522h-260l146 549z" />
<glyph unicode="Z" horiz-adv-x="1323" d="M-74 0l41 158l1075 1089h-782l55 199h1125l-54 -197l-1046 -1048h928l-195 -201h-1147z" />
<glyph unicode="[" horiz-adv-x="598" d="M-82 -295l500 1868h424l-49 -178h-183l-405 -1512h184l-49 -178h-422z" />
<glyph unicode="\" horiz-adv-x="768" d="M242 1446h239l144 -1446h-238z" />
<glyph unicode="]" horiz-adv-x="598" d="M-178 -295l47 178h182l406 1512h-183l48 178h423l-501 -1868h-422z" />
<glyph unicode="^" horiz-adv-x="1482" d="M199 582l657 864h248l190 -864h-252l-112 632l-459 -632h-272z" />
<glyph unicode="_" horiz-adv-x="1024" d="M76 -281h1065v-161h-1065v161z" />
<glyph unicode="`" horiz-adv-x="555" d="M45 1415l57 205l410 -326l-53 -172z" />
<glyph unicode="a" d="M43 332q0 201 117 383q33 49 73.5 95t110.5 102.5t173.5 90t223.5 33.5q182 0 375 -86l-186 -684q-29 -104 -33 -192q0 -41 8 -74h-229q-6 29 -6 66q0 41 6 81l-164 -151q-80 -18 -133 -19q-31 0 -59.5 3.5t-84 23t-93.5 54t-68.5 105t-30.5 169.5zM285 348 q0 -66 20.5 -112t54 -66t64.5 -27.5t63 -7.5q117 1 193 58l178 653q-69 24 -132 24h-5q-168 0 -285 -131q-68 -76 -109.5 -183t-41.5 -208z" />
<glyph unicode="b" d="M12 61l371 1385h229l-153 -584l166 158q59 16 120 16q139 0 236.5 -91t97.5 -281q0 -215 -119.5 -397.5t-318.5 -252.5q-102 -37 -240 -37q-219 0 -389 84zM274 172q68 -31 144 -31q90 0 172 43q78 41 132 111t75.5 142.5t30 120.5t8.5 83q0 127 -62.5 179t-140.5 52 q-97 0 -187 -57z" />
<glyph unicode="c" horiz-adv-x="937" d="M63 430q0 197 123 365q177 241 491 241h3q172 0 321 -67l-53 -189q-125 90 -254 90q-166 0 -274 -127q-111 -131 -111 -303q0 -162 97.5 -230.5t236.5 -68.5q41 0 87 7.5t72.5 13.5t62.5 17t40 11l-192 -196q-76 -16 -148 -17q-199 0 -323 89q-178 129 -179 364z" />
<glyph unicode="d" d="M47 344q0 324 254 541q177 151 419 151h3q90 0 182 -20l115 430h233l-387 -1446h-231l43 158l-162 -160q-78 -20 -131 -21q-143 0 -240.5 93.5t-97.5 273.5zM285 367q0 -86 40 -140.5t84 -69t91 -14.5q96 1 188 58l172 647q-61 24 -129 24h-6q-186 0 -313 -158.5 t-127 -346.5z" />
<glyph unicode="e" horiz-adv-x="1067" d="M70 426q0 225 137 399q166 211 440 211q160 0 272.5 -92t112.5 -276q0 -78 -20 -160h-695q-4 -49 -4 -68q0 -145 83 -224t229 -79q37 0 73.5 4t65.5 9.5t60.5 14.5t48 14t40 13.5t27.5 10.5l-199 -205q-104 -23 -190 -23q-219 0 -350 115t-131 336zM354 645h455v27 q0 209 -178 209q-111 0 -181.5 -74t-95.5 -162z" />
<glyph unicode="f" horiz-adv-x="598" d="M14 0l228 840h-129l147 172h29l37 135q49 180 150.5 253t248.5 73q80 0 168 -25l-49 -176q-47 28 -109 28h-4q-74 0 -115 -48t-69 -150l-25 -90h197l-47 -172h-195l-225 -840h-238z" />
<glyph unicode="g" d="M-96 -311l53 196q150 -131 317 -131q293 0 377 303l45 162l-159 -156q-57 -14 -127 -14q-27 0 -53.5 2t-85 22.5t-99.5 55.5t-73.5 110.5t-32.5 178.5q0 158 71.5 296t223 230t354.5 92q214 0 409 -84l-231 -864q-70 -256 -206 -380t-404 -124q-121 0 -226.5 36 t-152.5 69zM305 432q0 -102 56.5 -161.5t148.5 -59.5q25 0 51.5 5t51 12.5t42 14.5t35 15t19.5 8l155 578q-88 35 -166 35q-168 0 -280.5 -135.5t-112.5 -311.5z" />
<glyph unicode="h" d="M-4 0l389 1446h231l-157 -594l157 158q83 26 162 26h6q127 0 205 -68.5t78 -185.5q0 -66 -37 -202l-156 -580h-231l143 539q33 121 33 174q0 70 -47 109.5t-121 39.5q-94 0 -207 -61l-215 -801h-233z" />
<glyph unicode="i" horiz-adv-x="512" d="M-6 0l272 1012h232l-273 -1012h-231zM346 1360q0 49 37 84t90 35t89 -34t36 -83q0 -47 -35 -83t-90 -36q-53 0 -90 34t-37 83z" />
<glyph unicode="j" horiz-adv-x="512" d="M-115 -401l379 1413h234l-357 -1319zM342 1360q0 49 37 84t90 35t89 -34t36 -83q0 -47 -35 -83t-90 -36q-53 0 -90 34t-37 83z" />
<glyph unicode="k" horiz-adv-x="1067" d="M-4 0l385 1446h233l-227 -854l514 420h303l-555 -467l330 -545h-268l-338 543l-146 -543h-231z" />
<glyph unicode="l" horiz-adv-x="512" d="M-8 0l389 1446h231l-383 -1446h-237z" />
<glyph unicode="m" horiz-adv-x="1748" d="M-4 0l270 1012h236l-43 -164l168 166q80 22 147 22h6q20 0 40 -1t62 -12t71.5 -30.5t57 -61.5t33.5 -100l185 179q83 26 158 26h6q100 0 186 -58t86 -190q0 -63 -35 -198l-160 -590h-233l149 563q0 2 5.5 20.5t10.5 38t9 46t4 45.5q0 70 -45 107.5t-115 37.5 q-57 0 -121.5 -23.5t-91.5 -52.5q-6 -86 -36 -202l-154 -580h-238l154 573q29 102 29 148q0 68 -43 103.5t-113 35.5q-82 0 -197 -63l-215 -797h-233z" />
<glyph unicode="n" d="M-4 0l270 1012h236l-43 -162l166 162q94 24 152 24h5q123 0 204 -65.5t81 -188.5q0 -55 -29 -164l-166 -618h-229l145 549q33 119 33 166q0 74 -47 111.5t-121 37.5q-86 0 -207 -61l-215 -803h-235z" />
<glyph unicode="o" d="M70 406q0 252 160.5 441t410.5 189q203 0 314.5 -125t111.5 -311q0 -242 -156.5 -432.5t-412.5 -190.5q-201 0 -314.5 116t-113.5 313zM299 395q0 -111 51 -183.5t158 -72.5q141 0 232 159t91 329q0 133 -60 191.5t-142 58.5q-141 0 -235.5 -156t-94.5 -326z" />
<glyph unicode="p" d="M-121 -422l387 1434h232l-41 -154l161 154q65 22 125 22h5q96 0 165.5 -36.5t105.5 -96t51 -119t15 -118.5q0 -164 -79.5 -320t-238.5 -262.5t-357 -106.5q-78 0 -185 21l-112 -418h-234zM272 164q68 -23 138 -23q131 0 234.5 80t152.5 191.5t49 226.5q0 92 -48 161.5 t-161 69.5q-76 0 -191 -55z" />
<glyph unicode="q" d="M49 340q0 293 189.5 494.5t476.5 201.5q214 0 407 -86l-366 -1372h-232l152 572l-164 -154q-66 -18 -119 -19q-143 0 -243.5 96.5t-100.5 266.5zM293 375q0 -106 54 -170t151 -64q86 1 190 58l172 641q-59 30 -142 30h-5q-180 0 -300 -148.5t-120 -346.5z" />
<glyph unicode="r" horiz-adv-x="724" d="M-6 0l272 1012h234l-47 -181l186 185q72 16 119 16q68 0 127 -22l-60 -222q-86 61 -196 62q-92 0 -185 -53l-215 -797h-235z" />
<glyph unicode="s" horiz-adv-x="811" d="M-59 47l55 197q125 -104 260 -105q88 0 138 48.5t50 109.5q0 37 -20.5 68.5t-39.5 47t-58 42.5l-39 26q-143 98 -144 236q0 55 20.5 107.5t63.5 101.5t123 79.5t187 30.5h4q145 0 293 -65l-52 -187q-102 90 -223 90q-88 0 -133 -46t-45 -97q0 -45 22.5 -71.5t96.5 -79.5 l67 -50q115 -84 115 -221q0 -129 -107.5 -230.5t-314.5 -101.5q-160 0 -319 70z" />
<glyph unicode="t" horiz-adv-x="641" d="M66 184q0 49 24 142l137 514h-129l146 172h26l45 164l258 84l-65 -248h207l-47 -172h-207l-127 -473q-25 -88 -25 -129q0 -94 119 -95q49 0 141 17l-159 -164q-68 -18 -117 -19q-98 0 -162.5 54.5t-64.5 152.5z" />
<glyph unicode="u" d="M70 242q0 57 28 170l160 600h236l-152 -561q-29 -106 -29 -152q0 -72 44 -113t120 -41q78 0 209 60l217 807h236l-273 -1012h-235l43 156l-160 -158q-76 -20 -149 -21q-88 0 -149.5 27t-91.5 70t-42 84t-12 84z" />
<glyph unicode="v" horiz-adv-x="1024" d="M113 1012h235l60 -787l479 787h260l-676 -1012h-244z" />
<glyph unicode="w" horiz-adv-x="1536" d="M125 0l29 1012h231l-41 -750l481 750h115l82 -750l373 750h231l-530 -1012h-246l-64 637l-415 -637h-246z" />
<glyph unicode="x" horiz-adv-x="980" d="M-190 0l548 543l-245 469h241l162 -316l322 316h274l-504 -494l266 -518h-243l-185 358l-360 -358h-276z" />
<glyph unicode="y" horiz-adv-x="1024" d="M-186 -401l77 163q45 -4 56 -4q143 0 256 189l35 61l-111 1004h231l66 -766l459 766h258l-758 -1153q-41 -61 -68.5 -96t-81 -83.5t-125 -72t-163.5 -23.5q-55 0 -131 15z" />
<glyph unicode="z" horiz-adv-x="980" d="M-76 0l39 137l694 703h-505l45 172h813l-45 -172l-672 -668h588l-170 -172h-787z" />
<glyph unicode="{" horiz-adv-x="638" d="M41 563l43 160q117 6 160 44t75 169l78 301q49 190 120 262t251 72h119l-41 -158h-33q-76 0 -111.5 -28.5t-56.5 -104.5l-102 -379q-39 -141 -87 -197.5t-155 -74.5q117 -41 117 -154q0 -49 -19 -115l-75 -280q-29 -104 -29 -137q0 -43 24.5 -61.5t83.5 -18.5h27 l-43 -158h-108q-227 0 -228 186q0 53 27 150l84 309q18 66 18 101q0 57 -23.5 79.5t-115.5 32.5z" />
<glyph unicode="|" horiz-adv-x="520" d="M-78 -295l500 1868h240l-500 -1868h-240z" />
<glyph unicode="}" horiz-adv-x="638" d="M-197 -295l43 158h31q76 0 112 28.5t56 104.5l102 379q39 141 87.5 197.5t154.5 74.5q-117 41 -117 154q0 51 19 114l76 281q29 104 28 137q0 43 -24.5 61.5t-83.5 18.5h-27l43 158h109q227 0 227 -187q0 -53 -27 -149l-84 -309q-18 -66 -18 -101q0 -53 24.5 -77.5 t114.5 -34.5l-43 -160q-113 -6 -156.5 -42t-78.5 -171l-78 -301q-47 -188 -115.5 -261t-247.5 -73h-127z" />
<glyph unicode="~" horiz-adv-x="1482" d="M135 440l76 291q141 117 287 117q109 0 262 -82l92 -49q98 -51 168 -51q131 0 358 186l-78 -293q-174 -127 -333 -127q-109 0 -244 76l-66 37q-117 66 -196 65q-142 0 -326 -170z" />
<glyph unicode="&#xa1;" horiz-adv-x="512" d="M-18 0l282 948l221 86l-249 -1034h-254zM328 1327q0 55 39 95t96 40q55 0 95 -39t40 -96t-41 -96t-94 -39q-55 0 -95 38t-40 97z" />
<glyph unicode="&#xa2;" horiz-adv-x="937" d="M82 420q0 244 143.5 412.5t366.5 183.5l57 219h189l-60 -227q96 -14 170 -56l-53 -207q-94 88 -215 89q-172 0 -262 -118t-90 -282q0 -121 72.5 -189.5t209.5 -68.5q105 0 244 49l-188 -213q-61 -16 -158 -16l-59 -223h-189l68 254q-115 45 -180.5 145t-65.5 248z" />
<glyph unicode="&#xa3;" horiz-adv-x="1236" d="M35 0l174 186l113 414h-254l47 176h254l43 162q25 94 67.5 174t112.5 150.5t175 111.5t237 41q166 0 325 -67l-55 -201q-131 80 -246 80q-133 0 -228 -75t-149 -265l-30 -111h358l-45 -176h-361l-108 -414h704l-176 -186h-958z" />
<glyph unicode="&#xa4;" horiz-adv-x="1409" d="M100 266l168 148q-82 129 -82 282q0 190 121 346l-143 166l145 131l146 -165q131 82 284 81q190 0 340 -120l168 145l131 -150l-168 -145q80 -150 80 -285q0 -184 -121 -346l146 -170l-148 -131l-147 170q-86 -47 -145.5 -63.5t-135.5 -16.5q-188 0 -342 123l-168 -147z M395 696q0 -147 100.5 -247.5t247.5 -100.5q139 0 237.5 99.5t98.5 250.5q0 150 -96 251.5t-242 101.5q-147 0 -246.5 -101.5t-99.5 -253.5z" />
<glyph unicode="&#xa5;" horiz-adv-x="1280" d="M111 344l39 148h344l12 53l-27 92h-291l41 147h199l-211 615h268l203 -647l533 647h299l-531 -615h201l-39 -147h-293l-94 -102l-12 -43h370l-39 -148h-368l-92 -344h-261l93 344h-344z" />
<glyph unicode="&#xa6;" horiz-adv-x="520" d="M-80 -297l217 807h240l-217 -807h-240zM205 762l217 809h237l-215 -809h-239z" />
<glyph unicode="&#xa7;" horiz-adv-x="937" d="M-145 -317l57 213q164 -129 278 -129q76 0 129.5 48t53.5 117q0 57 -28 100.5t-87 106.5l-92 101q-113 127 -113 274q0 94 40 167t102.5 111.5t123 59t115.5 22.5q-121 121 -121 261q0 20 6.5 52t31 86t64.5 97t119.5 75t184.5 32q187 0 330 -117l-58 -209 q-137 141 -258 141q-61 0 -114.5 -37.5t-53.5 -117.5q0 -18 4 -35t13.5 -35t16.5 -30.5t24.5 -32t22.5 -26.5t26.5 -28.5l23.5 -23.5l45 -47q152 -158 152 -295q0 -154 -100.5 -262.5t-264.5 -143.5q94 -125 95 -237q0 -145 -110 -253t-302 -108q-184 0 -356 103zM289 528 q0 -25 8 -52t18.5 -47.5t25.5 -43.5t26.5 -36t25 -28.5t15.5 -17.5q106 16 174.5 79.5t68.5 160.5q0 99 -88 205h-33q-100 0 -170.5 -62.5t-70.5 -157.5z" />
<glyph unicode="&#xa8;" horiz-adv-x="555" d="M-25 1335q0 49 35 86t86 37q53 0 90 -34.5t37 -88t-38 -89.5t-89 -36t-86 36t-35 89zM334 1335q0 49 34.5 86t88.5 37q51 0 88 -34.5t37 -88t-37 -89.5t-88 -36t-87 36t-36 89z" />
<glyph unicode="&#xa9;" horiz-adv-x="1634" d="M143 727q0 303 212 514t517 211q307 0 518.5 -212t211.5 -521q0 -303 -213 -514t-518.5 -211t-516.5 213t-211 520zM225 721q0 -270 188.5 -460.5t457 -190.5t458 190.5t189.5 458.5q0 276 -186.5 466.5t-459.5 190.5q-270 0 -458.5 -190.5t-188.5 -464.5zM461 645 q0 227 146.5 381t361.5 154q143 -1 268 -60l-55 -184q-74 74 -205 74t-217 -103.5t-86 -261.5q0 -109 66.5 -171t185.5 -62q98 0 215 43l-142 -183q-80 -20 -141 -20q-178 0 -287.5 108.5t-109.5 284.5z" />
<glyph unicode="&#xaa;" horiz-adv-x="768" d="M195 1008q0 172 125.5 313t322.5 141q137 0 250 -57l-121 -442q-20 -76 -20 -117q0 -46 6 -58h-158q-6 18 -6 50q0 8 1 19t1 15l-92 -86q-49 -12 -86 -12q-59 0 -103.5 19.5t-66 45t-34.5 61.5t-16 59.5t-3 48.5zM360 1018q0 -131 123 -131q72 0 119 35l111 409 q-39 14 -80 15q-121 0 -197 -106.5t-76 -221.5z" />
<glyph unicode="&#xab;" horiz-adv-x="811" d="M12 553l246 311h215l-260 -325l143 -318h-192zM373 539l260 325h215l-275 -340l138 -303h-193z" />
<glyph unicode="&#xac;" horiz-adv-x="1482" d="M129 528l57 215h1160l-191 -714h-256l135 499h-905z" />
<glyph unicode="&#xad;" horiz-adv-x="724" d="M-16 451l174 167h581l-172 -167h-583z" />
<glyph unicode="&#xae;" horiz-adv-x="1634" d="M143 727q0 303 212 514t517 211q307 0 518.5 -212t211.5 -521q0 -303 -213 -514t-518.5 -211t-516.5 213t-211 520zM225 721q0 -270 188.5 -460.5t457 -190.5t458 190.5t189.5 458.5q0 276 -186.5 466.5t-459.5 190.5q-270 0 -458.5 -190.5t-188.5 -464.5zM461 295 l235 874h213q340 0 340 -235q0 -197 -209 -256l142 -383h-197l-125 362l-41 -2q-4 0 -32.5 1t-36.5 1l-99 -362h-190zM758 688l96 105q20 -2 43 -2q78 0 122 32.5t44 91.5q0 109 -148 109h-67z" />
<glyph unicode="&#xaf;" horiz-adv-x="555" d="M-27 1223l43 178h570l-45 -178h-568z" />
<glyph unicode="&#xb0;" horiz-adv-x="724" d="M106 1194q0 147 103.5 249.5t251.5 102.5q145 0 247.5 -104.5t102.5 -249.5t-103.5 -248.5t-248.5 -103.5q-147 0 -250 104.5t-103 249.5zM311 1192q0 -61 44 -104.5t104 -43.5q61 0 104 44.5t43 103.5t-44 102t-103 43q-61 0 -104.5 -43t-43.5 -102z" />
<glyph unicode="&#xb1;" horiz-adv-x="1482" d="M41 0l55 211h1104l-57 -211h-1102zM242 745l55 209h424l110 414h254l-110 -414h424l-56 -209h-425l-113 -421h-254l113 421h-422z" />
<glyph unicode="&#xb2;" horiz-adv-x="811" d="M80 494l33 122l374 314q154 125 154 231q0 49 -34 80t-95 31q-111 0 -250 -133l47 194q115 82 248 82q121 0 201 -63.5t80 -177.5q0 -166 -197 -318l-285 -221h422l-133 -141h-565z" />
<glyph unicode="&#xb3;" horiz-adv-x="811" d="M104 528l41 162q92 -70 220 -69q104 0 154 43t50 102q0 150 -225 149h-31l109 127q10 -2 27 -2q90 0 142 37t52 97q0 96 -125 96q-113 0 -231 -111l47 191q123 66 233 65q125 0 193.5 -61.5t68.5 -159.5q0 -168 -208 -231q74 -25 110.5 -81.5t36.5 -113.5 q0 -117 -96.5 -204t-298.5 -87q-146 0 -269 51z" />
<glyph unicode="&#xb4;" horiz-adv-x="555" d="M29 1122l53 217l446 279l-53 -248z" />
<glyph unicode="&#xb6;" horiz-adv-x="1308" d="M248 -342l262 987q-223 88 -223 340q0 113 51 210t143 161q72 51 158 70.5t235 19.5h472l-35 -133h-70l-440 -1655h-139l440 1655h-275l-440 -1655h-139z" />
<glyph unicode="&#xb7;" horiz-adv-x="456" d="M92 561.5q0 59.5 40 100t99.5 40.5t100.5 -40.5t41 -100t-41 -100.5t-100.5 -41t-99.5 41t-40 100.5z" />
<glyph unicode="&#xb8;" horiz-adv-x="555" d="M74 -539l45 144q178 10 178 114q0 41 -30.5 68t-84.5 29l131 215h129l-84 -140q123 -39 123 -174q0 -117 -110.5 -183t-296.5 -73z" />
<glyph unicode="&#xb9;" horiz-adv-x="811" d="M319 494l189 690l-164 -70l45 170l369 141l-252 -931h-187z" />
<glyph unicode="&#xba;" horiz-adv-x="768" d="M213 1057q0 158 103.5 281.5t269.5 123.5q125 0 200.5 -78.5t75.5 -201.5q0 -160 -100 -285t-268 -125q-106 0 -173 48t-87.5 107.5t-20.5 129.5zM373 1053q0 -82 33.5 -123t91.5 -41q76 0 139 89t63 220q0 74 -33.5 112t-86.5 38q-92 0 -149.5 -98.5t-57.5 -196.5z" />
<glyph unicode="&#xbb;" horiz-adv-x="811" d="M-41 221l272 340l-137 303h193l143 -315l-258 -328h-213zM332 221l260 328l-143 315h192l152 -332l-246 -311h-215z" />
<glyph unicode="&#xbc;" horiz-adv-x="1867" d="M283 494l188 690l-164 -70l45 170l369 141l-252 -931h-186zM356 0l871 1399h190l-874 -1399h-187zM903 213l33 102l518 590h234l-148 -557h125l-102 -135h-60l-57 -213h-174l59 213h-428zM1141 348h229l121 408z" />
<glyph unicode="&#xbd;" horiz-adv-x="1867" d="M276 494l189 690l-164 -70l45 170l369 141l-252 -931h-187zM338 0l870 1399h191l-875 -1399h-186zM948 0l33 123l375 313q154 125 153 232q0 49 -33.5 79.5t-95.5 30.5q-111 0 -250 -133l48 195q115 82 247 82q121 0 201 -63.5t80 -178.5q0 -166 -197 -318l-284 -221h422 l-134 -141h-565z" />
<glyph unicode="&#xbe;" horiz-adv-x="1867" d="M104 528l41 162q92 -70 220 -69q104 0 154 43t50 102q0 150 -225 149h-31l109 127q10 -2 27 -2q90 0 142 37t52 97q0 96 -125 96q-113 0 -231 -111l47 191q123 66 233 65q125 0 193.5 -61.5t68.5 -159.5q0 -168 -208 -231q74 -25 110.5 -81.5t36.5 -113.5 q0 -117 -96.5 -204t-298.5 -87q-146 0 -269 51zM475 0l871 1399h190l-874 -1399h-187zM995 213l33 102l518 590h234l-148 -557h125l-102 -135h-60l-57 -213h-174l59 213h-428zM1233 348h229l121 408z" />
<glyph unicode="&#xbf;" horiz-adv-x="854" d="M-39 317q0 100 43 181.5t113.5 129.5t149.5 75.5t159 33.5l53 193l260 96l-121 -446q-2 0 -21 1t-36 1q-98 0 -171 -26t-106.5 -65.5t-49 -75.5t-15.5 -71q0 -76 59.5 -128t145.5 -52q113 0 293 86l-62 -230q-145 -51 -293 -51q-176 0 -288.5 96.5t-112.5 251.5z M563 1327q0 55 39 95t96.5 40t96.5 -40t39 -95t-40 -95t-98 -40q-55 0 -94 40t-39 95z" />
<glyph unicode="&#xc0;" horiz-adv-x="1366" d="M-147 0l958 1446h283l159 -1446h-258l-39 362h-587l-232 -362h-284zM485 549h457l-59 625zM692 1776l53 184l467 -264l-47 -160z" />
<glyph unicode="&#xc1;" horiz-adv-x="1366" d="M-147 0l958 1446h283l159 -1446h-258l-39 362h-587l-232 -362h-284zM485 549h457l-59 625zM750 1536l51 182l536 246l-57 -215z" />
<glyph unicode="&#xc2;" horiz-adv-x="1366" d="M-147 0l958 1446h283l159 -1446h-258l-39 362h-587l-232 -362h-284zM485 549h457l-59 625zM643 1534l45 174l340 195l277 -213l-45 -156l-263 168z" />
<glyph unicode="&#xc3;" horiz-adv-x="1366" d="M-147 0l958 1446h283l159 -1446h-258l-39 362h-587l-232 -362h-284zM485 549h457l-59 625zM674 1583l55 189q82 74 176 73q49 0 148 -47q68 -35 135 -35q92 0 190 82l-51 -182q-80 -80 -174 -80q-45 0 -152 43q-92 39 -139 39q-92 0 -188 -82z" />
<glyph unicode="&#xc4;" horiz-adv-x="1366" d="M-147 0l958 1446h283l159 -1446h-258l-39 362h-587l-232 -362h-284zM485 549h457l-59 625zM678 1698q0 51 35 89t88 38t89 -36t36 -91.5t-37 -91t-88 -35.5t-87 37t-36 90zM1073 1698q0 51 35 89t88 38t90 -36t37 -91q0 -53 -38 -90t-89 -37t-87 37t-36 90z" />
<glyph unicode="&#xc5;" horiz-adv-x="1366" d="M-147 0l958 1446h283l159 -1446h-258l-39 362h-587l-232 -362h-284zM485 549h457l-59 625zM778 1739q0 92 61.5 153.5t156 61.5t156.5 -62.5t62 -152.5q0 -94 -61 -155.5t-157.5 -61.5t-157 61.5t-60.5 155.5zM897 1739q0 -45 27.5 -74t70.5 -29q45 0 72 29t27 74 t-27 72.5t-72 27.5q-43 0 -70.5 -28.5t-27.5 -71.5z" />
<glyph unicode="&#xc6;" horiz-adv-x="2004" d="M-147 0l1273 1446h1018l-53 -199h-602l-107 -399h525l-54 -197h-522l-121 -450h725l-192 -201h-850l104 387h-505l-338 -387h-301zM653 578h398l182 671z" />
<glyph unicode="&#xc7;" horiz-adv-x="1409" d="M139 627q0 164 67.5 317.5t186.5 269.5q106 106 283.5 187.5t423.5 81.5q223 0 428 -64l-58 -217q-166 92 -378 92q-299 0 -490.5 -199.5t-191.5 -451.5q0 -250 153.5 -371.5t380.5 -121.5q193 0 428 92l-235 -244q-117 -33 -246 -35l-47 -76q129 -41 129 -180 q0 -121 -116 -189.5t-308 -76.5l45 147q186 14 186 121q0 43 -31.5 70.5t-86.5 27.5l98 162q-221 23 -377 140q-119 90 -181.5 227t-62.5 291z" />
<glyph unicode="&#xc8;" horiz-adv-x="1110" d="M0 0l389 1446h854l-55 -199h-590l-106 -397h512l-54 -199h-510l-123 -452h717l-192 -199h-842zM532 1776l54 184l467 -264l-47 -160z" />
<glyph unicode="&#xc9;" horiz-adv-x="1110" d="M0 0l389 1446h854l-55 -199h-590l-106 -397h512l-54 -199h-510l-123 -452h717l-192 -199h-842zM657 1536l52 182l536 246l-57 -215z" />
<glyph unicode="&#xca;" horiz-adv-x="1110" d="M0 0l389 1446h854l-55 -199h-590l-106 -397h512l-54 -199h-510l-123 -452h717l-192 -199h-842zM516 1534l45 174l340 195l277 -213l-45 -156l-263 168z" />
<glyph unicode="&#xcb;" horiz-adv-x="1110" d="M0 0l389 1446h854l-55 -199h-590l-106 -397h512l-54 -199h-510l-123 -452h717l-192 -199h-842zM543 1698q0 51 34.5 89t88 38t89.5 -36t36 -91.5t-37 -91t-88.5 -35.5t-87 37t-35.5 90zM938 1698q0 51 35 89t88 38t90 -36t37 -91q0 -53 -38 -90t-89 -37t-87 37t-36 90z " />
<glyph unicode="&#xcc;" horiz-adv-x="555" d="M0 0l387 1446h260l-385 -1446h-262zM256 1776l53 184l467 -264l-47 -160z" />
<glyph unicode="&#xcd;" horiz-adv-x="555" d="M0 0l387 1446h260l-385 -1446h-262zM317 1536l52 182l536 246l-57 -215z" />
<glyph unicode="&#xce;" horiz-adv-x="555" d="M0 0l387 1446h260l-385 -1446h-262zM217 1534l45 174l340 195l277 -213l-45 -156l-263 168z" />
<glyph unicode="&#xcf;" horiz-adv-x="555" d="M0 0l387 1446h260l-385 -1446h-262zM231 1698q0 51 35 89t88.5 38t89 -36t35.5 -91.5t-36.5 -91t-88 -35.5t-87.5 37t-36 90zM627 1698q0 51 34.5 89t88 38t90.5 -36t37 -91q0 -53 -38 -90t-89.5 -37t-87 37t-35.5 90z" />
<glyph unicode="&#xd0;" horiz-adv-x="1492" d="M0 0l184 686h-127l37 137h129l166 623h402q82 0 146 -7t149 -28.5t157 -75t123 -133.5q86 -139 86 -334q0 -104 -21.5 -210.5t-84 -228.5t-156.5 -214t-256 -153.5t-367 -61.5h-567zM313 195h230q158 0 279.5 53t188 128t109.5 171t55.5 168.5t12.5 136.5 q0 109 -30 186.5t-68.5 116.5t-101 61.5t-106.5 26.5t-104 4h-182l-115 -424h379l-39 -137h-377z" />
<glyph unicode="&#xd1;" horiz-adv-x="1579" d="M0 0l389 1446h252l530 -977l254 977h248l-391 -1454h-100l-633 1134l-297 -1126h-252zM739 1583l56 189q82 74 176 73q49 0 147 -47q68 -35 135 -35q93 0 191 82l-51 -182q-80 -80 -174 -80q-45 0 -152 43q-92 39 -139 39q-92 0 -189 -82z" />
<glyph unicode="&#xd2;" horiz-adv-x="1662" d="M139 602q0 299 166 537q117 168 289 256t377 88q305 0 479 -183.5t174 -457.5q0 -217 -91 -399.5t-206 -282.5q-227 -197 -539 -197q-279 0 -464 167t-185 472zM408 604q0 -80 20.5 -153.5t64.5 -141t125.5 -108.5t188.5 -41q174 0 303 106.5t189.5 260t60.5 321.5 q0 193 -102.5 318.5t-292.5 125.5q-117 0 -214.5 -49t-160 -125t-104.5 -170t-60 -181t-18 -163zM801 1776l53 184l467 -264l-47 -160z" />
<glyph unicode="&#xd3;" horiz-adv-x="1662" d="M139 602q0 299 166 537q117 168 289 256t377 88q305 0 479 -183.5t174 -457.5q0 -217 -91 -399.5t-206 -282.5q-227 -197 -539 -197q-279 0 -464 167t-185 472zM408 604q0 -80 20.5 -153.5t64.5 -141t125.5 -108.5t188.5 -41q174 0 303 106.5t189.5 260t60.5 321.5 q0 193 -102.5 318.5t-292.5 125.5q-117 0 -214.5 -49t-160 -125t-104.5 -170t-60 -181t-18 -163zM811 1536l51 182l537 246l-58 -215z" />
<glyph unicode="&#xd4;" horiz-adv-x="1662" d="M139 602q0 299 166 537q117 168 289 256t377 88q305 0 479 -183.5t174 -457.5q0 -217 -91 -399.5t-206 -282.5q-227 -197 -539 -197q-279 0 -464 167t-185 472zM408 604q0 -80 20.5 -153.5t64.5 -141t125.5 -108.5t188.5 -41q174 0 303 106.5t189.5 260t60.5 321.5 q0 193 -102.5 318.5t-292.5 125.5q-117 0 -214.5 -49t-160 -125t-104.5 -170t-60 -181t-18 -163zM682 1534l45 174l340 195l276 -213l-45 -156l-262 168z" />
<glyph unicode="&#xd5;" horiz-adv-x="1662" d="M139 602q0 299 166 537q117 168 289 256t377 88q305 0 479 -183.5t174 -457.5q0 -217 -91 -399.5t-206 -282.5q-227 -197 -539 -197q-279 0 -464 167t-185 472zM408 604q0 -80 20.5 -153.5t64.5 -141t125.5 -108.5t188.5 -41q174 0 303 106.5t189.5 260t60.5 321.5 q0 193 -102.5 318.5t-292.5 125.5q-117 0 -214.5 -49t-160 -125t-104.5 -170t-60 -181t-18 -163zM707 1583l55 189q82 74 176 73q49 0 147 -47q68 -35 136 -35q92 0 190 82l-51 -182q-80 -80 -174 -80q-45 0 -152 43q-92 39 -139 39q-92 0 -188 -82z" />
<glyph unicode="&#xd6;" horiz-adv-x="1662" d="M139 602q0 299 166 537q117 168 289 256t377 88q305 0 479 -183.5t174 -457.5q0 -217 -91 -399.5t-206 -282.5q-227 -197 -539 -197q-279 0 -464 167t-185 472zM408 604q0 -80 20.5 -153.5t64.5 -141t125.5 -108.5t188.5 -41q174 0 303 106.5t189.5 260t60.5 321.5 q0 193 -102.5 318.5t-292.5 125.5q-117 0 -214.5 -49t-160 -125t-104.5 -170t-60 -181t-18 -163zM766 1698q0 51 35 89t88 38t89 -36t36 -91.5t-37 -91t-88 -35.5t-87 37t-36 90zM1161 1698q0 51 35 89t88 38t90 -36t37 -91q0 -53 -38 -90t-89 -37t-87 37t-36 90z" />
<glyph unicode="&#xd7;" horiz-adv-x="1482" d="M233 375l359 272l-250 328l197 158l249 -328l361 274l131 -166l-358 -276l252 -334l-199 -156l-252 332l-358 -272z" />
<glyph unicode="&#xd8;" horiz-adv-x="1662" d="M-39 96l248 195q-70 143 -70 309q0 367 236.5 625t593.5 258q326 0 495 -195l215 168l99 -127l-224 -174q70 -143 70 -315q0 -186 -78 -366.5t-215 -305.5q-219 -203 -538 -203q-309 0 -494 191l-238 -185zM403 588q1 -72 19 -133l856 686q-37 43 -67.5 70.5t-99.5 56 t-153 28.5q-225 0 -380 -190q-82 -102 -128.5 -241.5t-46.5 -276.5zM489 305q100 -150 318 -149q139 0 250 67q143 88 223 266.5t80 356.5q-1 94 -17 143z" />
<glyph unicode="&#xd9;" horiz-adv-x="1536" d="M139 430q0 109 37 244l209 772h264l-209 -776q-37 -139 -37 -226q0 -121 80 -200.5t226 -79.5q180 0 275 102.5t155 319.5l233 860h264l-254 -942q-70 -254 -225.5 -397.5t-451.5 -143.5q-98 0 -190.5 23.5t-180.5 74t-141.5 145.5t-53.5 224zM682 1776l53 184l467 -264 l-47 -160z" />
<glyph unicode="&#xda;" horiz-adv-x="1536" d="M139 430q0 109 37 244l209 772h264l-209 -776q-37 -139 -37 -226q0 -121 80 -200.5t226 -79.5q180 0 275 102.5t155 319.5l233 860h264l-254 -942q-70 -254 -225.5 -397.5t-451.5 -143.5q-98 0 -190.5 23.5t-180.5 74t-141.5 145.5t-53.5 224zM844 1536l51 182l537 246 l-58 -215z" />
<glyph unicode="&#xdb;" horiz-adv-x="1536" d="M139 430q0 109 37 244l209 772h264l-209 -776q-37 -139 -37 -226q0 -121 80 -200.5t226 -79.5q180 0 275 102.5t155 319.5l233 860h264l-254 -942q-70 -254 -225.5 -397.5t-451.5 -143.5q-98 0 -190.5 23.5t-180.5 74t-141.5 145.5t-53.5 224zM721 1534l45 174l340 195 l276 -213l-45 -156l-262 168z" />
<glyph unicode="&#xdc;" horiz-adv-x="1536" d="M139 430q0 109 37 244l209 772h264l-209 -776q-37 -139 -37 -226q0 -121 80 -200.5t226 -79.5q180 0 275 102.5t155 319.5l233 860h264l-254 -942q-70 -254 -225.5 -397.5t-451.5 -143.5q-98 0 -190.5 23.5t-180.5 74t-141.5 145.5t-53.5 224zM731 1698q0 51 35 89t88 38 t89 -36t36 -91.5t-37 -91t-88 -35.5t-87 37t-36 90zM1126 1698q0 51 35 89t88.5 38t90 -36t36.5 -91q0 -53 -38 -90t-89 -37t-87 37t-36 90z" />
<glyph unicode="&#xdd;" horiz-adv-x="1323" d="M238 1446h266l213 -684l555 684h299l-785 -924l-137 -522h-260l146 549zM725 1536l51 182l537 246l-58 -215z" />
<glyph unicode="&#xde;" horiz-adv-x="1193" d="M0 0l387 1446h266l-78 -289h97q66 0 108.5 -3t107 -15.5t118 -43t96.5 -79.5q80 -94 80 -232q0 -143 -90 -264q-166 -219 -541 -219q-61 0 -201 16l-84 -317h-266zM358 342l181 162q25 -4 57 -4q154 0 234.5 83t80.5 181q0 61 -26.5 104t-70.5 62.5t-84 27t-83 7.5h-123z " />
<glyph unicode="&#xdf;" horiz-adv-x="1193" d="M-4 0l274 1014q45 172 99.5 255t156.5 140q115 63 279 64q141 0 262 -83t121 -241q0 -131 -93.5 -224.5t-224.5 -111.5q31 -10 66 -31.5t75 -60.5t65.5 -104.5t25.5 -145.5q0 -182 -121 -324q-147 -172 -403 -172q-94 0 -232 39l49 181q76 -47 168 -48q125 0 213 98.5 t88 235.5q0 193 -186 248q-53 16 -139 21l157 165q78 0 165 60.5t87 171.5q0 74 -49 117t-117 43q-90 0 -143 -43q-33 -27 -51.5 -49.5t-45 -83t-53.5 -164.5l-258 -967h-235z" />
<glyph unicode="&#xe0;" d="M43 332q0 201 117 383q33 49 73.5 95t110.5 102.5t173.5 90t223.5 33.5q182 0 375 -86l-186 -684q-29 -104 -33 -192q0 -41 8 -74h-229q-6 29 -6 66q0 41 6 81l-164 -151q-80 -18 -133 -19q-31 0 -59.5 3.5t-84 23t-93.5 54t-68.5 105t-30.5 169.5zM285 348 q0 -66 20.5 -112t54 -66t64.5 -27.5t63 -7.5q117 1 193 58l178 653q-72 25 -137 24q-168 0 -285 -131q-68 -76 -109.5 -183t-41.5 -208zM475 1415l57 205l410 -326l-53 -172z" />
<glyph unicode="&#xe1;" d="M43 332q0 201 117 383q33 49 73.5 95t110.5 102.5t173.5 90t223.5 33.5q182 0 375 -86l-186 -684q-29 -104 -33 -192q0 -41 8 -74h-229q-6 29 -6 66q0 41 6 81l-164 -151q-80 -18 -133 -19q-31 0 -59.5 3.5t-84 23t-93.5 54t-68.5 105t-30.5 169.5zM285 348 q0 -66 20.5 -112t54 -66t64.5 -27.5t63 -7.5q117 1 193 58l178 653q-72 25 -137 24q-168 0 -285 -131q-68 -76 -109.5 -183t-41.5 -208zM616 1122l54 217l446 279l-53 -248z" />
<glyph unicode="&#xe2;" d="M43 332q0 201 117 383q33 49 73.5 95t110.5 102.5t173.5 90t223.5 33.5q182 0 375 -86l-186 -684q-29 -104 -33 -192q0 -41 8 -74h-229q-6 29 -6 66q0 41 6 81l-164 -151q-80 -18 -133 -19q-31 0 -59.5 3.5t-84 23t-93.5 54t-68.5 105t-30.5 169.5zM285 348 q0 -66 20.5 -112t54 -66t64.5 -27.5t63 -7.5q117 1 193 58l178 653q-72 25 -137 24q-168 0 -285 -131q-68 -76 -109.5 -183t-41.5 -208zM451 1124l53 205l332 250l237 -276l-47 -181l-227 234z" />
<glyph unicode="&#xe3;" d="M43 332q0 201 117 383q33 49 73.5 95t110.5 102.5t173.5 90t223.5 33.5q182 0 375 -86l-186 -684q-29 -104 -33 -192q0 -41 8 -74h-229q-6 29 -6 66q0 41 6 81l-164 -151q-80 -18 -133 -19q-31 0 -59.5 3.5t-84 23t-93.5 54t-68.5 105t-30.5 169.5zM285 348 q0 -66 20.5 -112t54 -66t64.5 -27.5t63 -7.5q117 1 193 58l178 653q-72 25 -137 24q-168 0 -285 -131q-68 -76 -109.5 -183t-41.5 -208zM471 1188l53 182q84 80 170 80q51 0 109 -33q92 -53 160 -53q86 0 180 80l-49 -178q-82 -82 -168 -82q-43 0 -90 20q-10 4 -31 14.5 l-27 13.5t-21.5 10t-21.5 8t-17 6.5t-16.5 6.5t-14.5 3t-17 2h-17q-88 0 -182 -80z" />
<glyph unicode="&#xe4;" d="M43 332q0 201 117 383q33 49 73.5 95t110.5 102.5t173.5 90t223.5 33.5q182 0 375 -86l-186 -684q-29 -104 -33 -192q0 -41 8 -74h-229q-6 29 -6 66q0 41 6 81l-164 -151q-80 -18 -133 -19q-31 0 -59.5 3.5t-84 23t-93.5 54t-68.5 105t-30.5 169.5zM285 348 q0 -66 20.5 -112t54 -66t64.5 -27.5t63 -7.5q117 1 193 58l178 653q-72 25 -137 24q-168 0 -285 -131q-68 -76 -109.5 -183t-41.5 -208zM479 1335q0 49 35 86t86 37q53 0 90 -34.5t37 -88t-38 -89.5t-89 -36t-86 36t-35 89zM838 1335q0 49 34.5 86t88.5 37q51 0 87.5 -34.5 t36.5 -88t-36.5 -89.5t-88 -36t-87 36t-35.5 89z" />
<glyph unicode="&#xe5;" d="M43 332q0 201 117 383q33 49 73.5 95t110.5 102.5t173.5 90t223.5 33.5q182 0 375 -86l-186 -684q-29 -104 -33 -192q0 -41 8 -74h-229q-6 29 -6 66q0 41 6 81l-164 -151q-80 -18 -133 -19q-31 0 -59.5 3.5t-84 23t-93.5 54t-68.5 105t-30.5 169.5zM285 348 q0 -66 20.5 -112t54 -66t64.5 -27.5t63 -7.5q117 1 193 58l178 653q-72 25 -137 24q-168 0 -285 -131q-68 -76 -109.5 -183t-41.5 -208zM592 1356q0 90 62.5 151.5t154.5 61.5t155.5 -61.5t63.5 -151.5q0 -94 -62.5 -154.5t-156.5 -60.5t-155.5 61.5t-61.5 153.5zM711 1356 q0 -43 27.5 -73t70.5 -30t70.5 30t27.5 73q0 45 -27.5 72.5t-70.5 27.5t-70.5 -28.5t-27.5 -71.5z" />
<glyph unicode="&#xe6;" horiz-adv-x="1705" d="M45 338q0 68 17.5 143.5t57.5 162.5t119.5 168t188.5 134q186 90 545 90q86 0 125 -2l-23 -78q123 80 260 80q164 0 257.5 -100t93.5 -266q0 -72 -25 -164h-684q-8 -39 -8 -96q0 -125 73 -197q78 -76 222 -76q121 1 307 60l-197 -201q-119 -18 -186 -19q-315 0 -422 222 l-217 -201q-102 -20 -154 -21q-176 0 -263 99.5t-87 261.5zM289 365q0 -123 59.5 -174.5t136.5 -51.5q59 0 134 31t129 70q-20 55 -21 135q0 69 33 200l76 281q-29 2 -78 2q-150 0 -269 -90q-90 -70 -145 -182.5t-55 -220.5zM1016 643h440q4 25 4 57q0 82 -44 132.5 t-122 50.5q-33 0 -66.5 -9.5t-74.5 -32t-77.5 -73.5t-59.5 -125z" />
<glyph unicode="&#xe7;" horiz-adv-x="937" d="M63 430q0 197 123 365q178 242 494 241q172 0 321 -67l-53 -189q-125 90 -254 90q-166 0 -274 -127q-111 -131 -111 -303q0 -162 97.5 -230.5t236.5 -68.5q41 0 87 7.5t72.5 13.5t62.5 17t40 11l-192 -196q-76 -16 -154 -17l-51 -86q123 -39 123 -174q0 -117 -110.5 -183 t-297.5 -73l45 144q178 10 178 114q0 41 -30.5 68t-83.5 29l104 172q-109 16 -194 78q-178 129 -179 364z" />
<glyph unicode="&#xe8;" horiz-adv-x="1067" d="M70 426q0 225 137 399q166 211 440 211q160 0 272.5 -92t112.5 -276q0 -78 -20 -160h-695q-4 -49 -4 -68q0 -145 83 -224t229 -79q37 0 73.5 4t65.5 9.5t60.5 14.5t48 14t40 13.5t27.5 10.5l-199 -205q-104 -23 -190 -23q-219 0 -350 115t-131 336zM354 645h455v27 q0 209 -178 209q-111 0 -181.5 -74t-95.5 -162zM397 1415l58 205l409 -326l-53 -172z" />
<glyph unicode="&#xe9;" horiz-adv-x="1067" d="M70 426q0 225 137 399q166 211 440 211q160 0 272.5 -92t112.5 -276q0 -78 -20 -160h-695q-4 -49 -4 -68q0 -145 83 -224t229 -79q37 0 73.5 4t65.5 9.5t60.5 14.5t48 14t40 13.5t27.5 10.5l-199 -205q-104 -23 -190 -23q-219 0 -350 115t-131 336zM354 645h455v27 q0 209 -178 209q-111 0 -181.5 -74t-95.5 -162zM496 1122l53 217l446 279l-53 -248z" />
<glyph unicode="&#xea;" horiz-adv-x="1067" d="M70 426q0 225 137 399q166 211 440 211q160 0 272.5 -92t112.5 -276q0 -78 -20 -160h-695q-4 -49 -4 -68q0 -145 83 -224t229 -79q37 0 73.5 4t65.5 9.5t60.5 14.5t48 14t40 13.5t27.5 10.5l-199 -205q-104 -23 -190 -23q-219 0 -350 115t-131 336zM354 645h455v27 q0 209 -178 209q-111 0 -181.5 -74t-95.5 -162zM365 1124l53 205l332 250l237 -276l-47 -181l-227 234z" />
<glyph unicode="&#xeb;" horiz-adv-x="1067" d="M70 426q0 225 137 399q166 211 440 211q160 0 272.5 -92t112.5 -276q0 -78 -20 -160h-695q-4 -49 -4 -68q0 -145 83 -224t229 -79q37 0 73.5 4t65.5 9.5t60.5 14.5t48 14t40 13.5t27.5 10.5l-199 -205q-104 -23 -190 -23q-219 0 -350 115t-131 336zM354 645h455v27 q0 209 -178 209q-111 0 -181.5 -74t-95.5 -162zM412 1335q0 49 34.5 86t85.5 37q53 0 90 -34.5t37 -88t-37.5 -89.5t-89 -36t-86 36t-34.5 89zM770 1335q0 49 35 86t88 37q51 0 88 -34.5t37 -88t-37 -89.5t-88 -36t-87 36t-36 89z" />
<glyph unicode="&#xec;" horiz-adv-x="512" d="M-6 0l272 1012h232l-273 -1012h-231zM139 1415l58 205l409 -326l-53 -172z" />
<glyph unicode="&#xed;" horiz-adv-x="512" d="M-6 0l272 1012h232l-273 -1012h-231zM240 1122l53 217l446 279l-53 -248z" />
<glyph unicode="&#xee;" horiz-adv-x="512" d="M-6 0l272 1012h232l-273 -1012h-231zM113 1124l53 205l332 250l237 -276l-47 -181l-227 234z" />
<glyph unicode="&#xef;" horiz-adv-x="512" d="M-6 0l272 1012h232l-273 -1012h-231zM127 1335q0 49 35 86t86 37q53 0 90 -34.5t37 -88t-38 -89.5t-89 -36t-86 36t-35 89zM485 1335q0 49 35 86t88 37q51 0 88 -34.5t37 -88t-37 -89.5t-88 -36t-87 36t-36 89z" />
<glyph unicode="&#xf0;" d="M70 422q0 150 79.5 310.5t245.5 246.5q109 57 234 57q113 0 213 -69q-31 125 -66 207l-287 -68l-49 125l273 63q-45 74 -86 125l229 68q53 -68 90 -137l158 36l45 -124l-143 -33q86 -231 86 -447q0 -109 -17.5 -215t-61.5 -214.5t-109.5 -190.5t-169 -133.5t-232.5 -51.5 q-53 0 -103.5 8.5t-113 37t-108.5 74.5t-76.5 130t-30.5 195zM299 397q0 -129 59.5 -193.5t143.5 -64.5q102 0 180 83t113.5 190.5t35.5 208.5q0 135 -59 195.5t-143 60.5q-100 0 -180 -86t-115 -193t-35 -201z" />
<glyph unicode="&#xf1;" d="M-4 0l270 1012h236l-43 -162l166 162q98 25 157 24q123 0 204 -65.5t81 -188.5q0 -55 -29 -164l-166 -618h-229l145 549q33 119 33 166q0 74 -47 111.5t-121 37.5q-86 0 -207 -61l-215 -803h-235zM426 1188l53 182q84 80 170 80q51 0 109 -33q94 -53 160 -53q86 0 180 80 l-49 -178q-82 -82 -168 -82q-43 0 -90 20q-10 4 -31 14.5l-27 13.5t-21.5 10t-21.5 8t-17 6.5t-16.5 6.5t-14.5 3t-17.5 2h-16.5q-88 0 -182 -80z" />
<glyph unicode="&#xf2;" d="M70 406q0 252 160.5 441t410.5 189q203 0 314.5 -125t111.5 -311q0 -242 -156.5 -432.5t-412.5 -190.5q-201 0 -314.5 116t-113.5 313zM299 395q0 -111 51 -183.5t158 -72.5q141 0 232 159t91 329q0 133 -60 191.5t-142 58.5q-141 0 -235.5 -156t-94.5 -326zM401 1415 l58 205l409 -326l-53 -172z" />
<glyph unicode="&#xf3;" d="M70 406q0 252 160.5 441t410.5 189q203 0 314.5 -125t111.5 -311q0 -242 -156.5 -432.5t-412.5 -190.5q-201 0 -314.5 116t-113.5 313zM299 395q0 -111 51 -183.5t158 -72.5q141 0 232 159t91 329q0 133 -60 191.5t-142 58.5q-141 0 -235.5 -156t-94.5 -326zM555 1122 l53 217l447 279l-54 -248z" />
<glyph unicode="&#xf4;" d="M70 406q0 252 160.5 441t410.5 189q203 0 314.5 -125t111.5 -311q0 -242 -156.5 -432.5t-412.5 -190.5q-201 0 -314.5 116t-113.5 313zM299 395q0 -111 51 -183.5t158 -72.5q141 0 232 159t91 329q0 133 -60 191.5t-142 58.5q-141 0 -235.5 -156t-94.5 -326zM381 1124 l53 205l332 250l238 -276l-48 -181l-227 234z" />
<glyph unicode="&#xf5;" d="M70 406q0 252 160.5 441t410.5 189q203 0 314.5 -125t111.5 -311q0 -242 -156.5 -432.5t-412.5 -190.5q-201 0 -314.5 116t-113.5 313zM299 395q0 -111 51 -183.5t158 -72.5q141 0 232 159t91 329q0 133 -60 191.5t-142 58.5q-141 0 -235.5 -156t-94.5 -326zM414 1188 l53 182q84 80 170 80q51 0 108 -33q92 -53 160 -53q86 0 180 80l-49 -178q-82 -82 -168 -82q-43 0 -90 20q-10 4 -30.5 14.5t-26.5 13.5t-21.5 10t-21.5 8t-17.5 6.5t-16.5 6.5t-14 3t-17.5 2h-16.5q-88 0 -182 -80z" />
<glyph unicode="&#xf6;" d="M70 406q0 252 160.5 441t410.5 189q203 0 314.5 -125t111.5 -311q0 -242 -156.5 -432.5t-412.5 -190.5q-201 0 -314.5 116t-113.5 313zM299 395q0 -111 51 -183.5t158 -72.5q141 0 232 159t91 329q0 133 -60 191.5t-142 58.5q-141 0 -235.5 -156t-94.5 -326zM428 1335 q0 49 35 86t86 37q53 0 90 -34.5t37 -88t-38 -89.5t-89 -36t-86 36t-35 89zM786 1335q0 49 35 86t88 37q51 0 88 -34.5t37 -88t-36.5 -89.5t-88 -36t-87.5 36t-36 89z" />
<glyph unicode="&#xf7;" horiz-adv-x="1497" d="M168 526l59 222h1157l-57 -222h-1159zM524 266.5q0 63.5 43 106.5t105 43q63 0 107 -44.5t44 -107.5q0 -61 -44 -104t-105 -43q-63 0 -106.5 43t-43.5 106.5zM721 1006q0 66 42 108.5t105.5 42.5t106.5 -44t43 -107.5t-43 -106.5t-106.5 -43t-105.5 43t-42 107z" />
<glyph unicode="&#xf8;" d="M-53 96l155 125q-39 88 -39 191q0 252 163 438t399 186q213 0 321 -127l135 107l84 -107l-141 -114q39 -94 39 -195q0 -217 -123 -389q-168 -236 -453 -236q-203 0 -309 131l-145 -116zM293 410q0 -25 2 -37l504 420q-57 102 -178 102q-135 0 -231.5 -150.5t-96.5 -334.5 zM332 227q6 -18 20.5 -37.5t56.5 -43t97 -23.5q92 0 160.5 59.5t101.5 147.5t47 162.5t14 130.5v22z" />
<glyph unicode="&#xf9;" d="M70 242q0 57 28 170l160 600h236l-152 -561q-29 -106 -29 -152q0 -72 44 -113t120 -41q78 0 209 60l217 807h236l-273 -1012h-235l43 156l-160 -158q-76 -20 -149 -21q-88 0 -149.5 27t-91.5 70t-42 84t-12 84zM393 1415l58 205l409 -326l-53 -172z" />
<glyph unicode="&#xfa;" d="M70 242q0 57 28 170l160 600h236l-152 -561q-29 -106 -29 -152q0 -72 44 -113t120 -41q78 0 209 60l217 807h236l-273 -1012h-235l43 156l-160 -158q-76 -20 -149 -21q-88 0 -149.5 27t-91.5 70t-42 84t-12 84zM604 1122l53 217l447 279l-53 -248z" />
<glyph unicode="&#xfb;" d="M70 242q0 57 28 170l160 600h236l-152 -561q-29 -106 -29 -152q0 -72 44 -113t120 -41q78 0 209 60l217 807h236l-273 -1012h-235l43 156l-160 -158q-76 -20 -149 -21q-88 0 -149.5 27t-91.5 70t-42 84t-12 84zM422 1124l53 205l332 250l237 -276l-47 -181l-227 234z" />
<glyph unicode="&#xfc;" d="M70 242q0 57 28 170l160 600h236l-152 -561q-29 -106 -29 -152q0 -72 44 -113t120 -41q78 0 209 60l217 807h236l-273 -1012h-235l43 156l-160 -158q-76 -20 -149 -21q-88 0 -149.5 27t-91.5 70t-42 84t-12 84zM465 1335q0 49 35 86t86 37q53 0 90 -34.5t37 -88 t-38 -89.5t-89 -36t-86 36t-35 89zM823 1335q0 49 35 86t88 37q51 0 88 -34.5t37 -88t-37 -89.5t-88 -36t-87 36t-36 89z" />
<glyph unicode="&#xfd;" horiz-adv-x="1024" d="M-186 -401l77 163q45 -4 56 -4q143 0 256 189l35 61l-111 1004h231l66 -766l459 766h258l-758 -1153q-41 -61 -68.5 -96t-81 -83.5t-125 -72t-163.5 -23.5q-55 0 -131 15zM535 1122l53 217l446 279l-53 -248z" />
<glyph unicode="&#xfe;" d="M-119 -422l502 1868h231l-159 -590l163 158q76 20 132 20q160 0 247.5 -106.5t87.5 -261.5q0 -170 -98 -348.5t-285 -274.5q-133 -68 -301 -68q-74 0 -176 21l-112 -418h-232zM270 164q63 -23 136 -23q37 0 74.5 7.5t95 31t113.5 79.5t97 140q59 119 60 238 q0 127 -64.5 180t-142.5 53q-89 0 -195 -57z" />
<glyph unicode="&#xff;" horiz-adv-x="1024" d="M-186 -401l77 163q45 -4 56 -4q143 0 256 189l35 61l-111 1004h231l66 -766l459 766h258l-758 -1153q-41 -61 -68.5 -96t-81 -83.5t-125 -72t-163.5 -23.5q-55 0 -131 15zM371 1335q0 49 34.5 86t86.5 37q53 0 89.5 -34.5t36.5 -88t-37.5 -89.5t-89 -36t-86 36t-34.5 89z M729 1335q0 49 35 86t88 37q51 0 88 -34.5t37 -88t-37 -89.5t-88 -36t-87 36t-36 89z" />
<glyph unicode="&#x152;" horiz-adv-x="2048" d="M141 621q0 199 87 377t245 300q229 180 543 181q94 0 323 -33h844l-55 -199h-586l-106 -399h506l-52 -197h-508l-120 -450h710l-190 -201h-752q-147 -25 -235 -25q-305 0 -479.5 183.5t-174.5 462.5zM414 621q0 -117 37.5 -207t99 -141.5t130.5 -76t142 -24.5 q97 0 181 27l274 1030q-131 57 -272 57q-203 0 -353 -129q-113 -96 -176 -239.5t-63 -296.5z" />
<glyph unicode="&#x153;" horiz-adv-x="1792" d="M68 401q0 182 86 338q78 139 201.5 218t277.5 79q111 0 192.5 -42t110.5 -79.5t45 -76.5q152 199 401 198q86 0 150 -20q94 -29 167 -113t73 -244q0 -66 -21 -151h-692q-6 -43 -6 -82q0 -80 29.5 -138.5t67.5 -86t90 -44t79 -18.5t53 -2q125 1 287 62l-199 -207 q-68 -14 -151 -15q-104 0 -176 17.5t-140 73.5q-61 51 -92 120q-53 -70 -88 -102q-123 -109 -307 -109q-207 0 -322.5 112t-115.5 312zM299 387.5q0 -108.5 53.5 -178.5t153.5 -70q86 0 153.5 55.5t102.5 136.5t52 159t17 139q0 131 -62 187t-134 56q-100 0 -180 -78.5 t-118 -188t-38 -218zM1096 647h450q4 37 4 49q0 98 -52 141.5t-120 43.5q-200 -1 -282 -234z" />
<glyph unicode="&#x178;" horiz-adv-x="1323" d="M238 1446h266l213 -684l555 684h299l-785 -924l-137 -522h-260l146 549zM604 1698q0 51 35 89t88 38t89 -36t36 -91.5t-37 -91t-88 -35.5t-87 37t-36 90zM999 1698q0 51 35 89t88.5 38t90 -36t36.5 -91q0 -53 -37.5 -90t-89 -37t-87.5 37t-36 90z" />
<glyph unicode="&#x2c6;" horiz-adv-x="555" d="M-35 1124l53 205l332 250l238 -276l-47 -181l-228 234z" />
<glyph unicode="&#x2dc;" horiz-adv-x="555" d="M-59 1188l53 182q84 80 170 80q51 0 108 -33q92 -53 160 -53q86 0 180 80l-49 -178q-82 -82 -168 -82q-43 0 -90 20q-10 4 -30.5 14.5t-26.5 13.5t-21.5 10t-21.5 8t-17.5 6.5t-16.5 6.5t-14.5 3t-17.5 2h-16q-88 0 -182 -80z" />
<glyph unicode="&#x2000;" horiz-adv-x="982" />
<glyph unicode="&#x2001;" horiz-adv-x="1964" />
<glyph unicode="&#x2002;" horiz-adv-x="982" />
<glyph unicode="&#x2003;" horiz-adv-x="1964" />
<glyph unicode="&#x2004;" horiz-adv-x="654" />
<glyph unicode="&#x2005;" horiz-adv-x="491" />
<glyph unicode="&#x2006;" horiz-adv-x="327" />
<glyph unicode="&#x2007;" horiz-adv-x="327" />
<glyph unicode="&#x2008;" horiz-adv-x="245" />
<glyph unicode="&#x2009;" horiz-adv-x="392" />
<glyph unicode="&#x200a;" horiz-adv-x="109" />
<glyph unicode="&#x2010;" horiz-adv-x="724" d="M-16 451l174 167h581l-172 -167h-583z" />
<glyph unicode="&#x2011;" horiz-adv-x="724" d="M-16 451l174 167h581l-172 -167h-583z" />
<glyph unicode="&#x2012;" horiz-adv-x="724" d="M-16 451l174 167h581l-172 -167h-583z" />
<glyph unicode="&#x2013;" horiz-adv-x="1103" d="M-16 451l174 167h958l-170 -167h-962z" />
<glyph unicode="&#x2014;" horiz-adv-x="1521" d="M-16 451l174 167h1376l-170 -167h-1380z" />
<glyph unicode="&#x2018;" horiz-adv-x="425" d="M152 1022l335 424h148l-266 -424h-217z" />
<glyph unicode="&#x2019;" horiz-adv-x="425" d="M150 1022l266 424h217l-336 -424h-147z" />
<glyph unicode="&#x201a;" horiz-adv-x="425" d="M-180 -211l268 424h215l-336 -424h-147z" />
<glyph unicode="&#x201c;" horiz-adv-x="768" d="M147 1022l336 424h148l-266 -424h-218zM494 1022l335 424h148l-268 -424h-215z" />
<glyph unicode="&#x201d;" horiz-adv-x="768" d="M145 1022l267 424h217l-336 -424h-148zM492 1022l264 424h219l-336 -424h-147z" />
<glyph unicode="&#x201e;" horiz-adv-x="768" d="M-178 -211l268 424h215l-336 -424h-147zM168 -211l266 424h217l-336 -424h-147z" />
<glyph unicode="&#x2022;" horiz-adv-x="681" d="M119 721q0 113 80 191.5t192.5 78.5t190 -76.5t77.5 -189.5q0 -121 -74.5 -197.5t-191.5 -76.5q-115 0 -194.5 78.5t-79.5 191.5z" />
<glyph unicode="&#x2026;" horiz-adv-x="2048" d="M84 106.5q0 55.5 37 93.5t90 38t91 -38t38 -93.5t-38 -92.5t-91 -37t-90 37t-37 92.5zM768 106.5q0 55.5 37 93.5t90 38t91 -38t38 -93.5t-37 -92.5t-92 -37q-53 0 -90 37t-37 92.5zM1450 106.5q0 55.5 37 93.5t92 38q53 0 90 -38.5t37 -93.5q0 -53 -37 -91t-92 -38 q-53 0 -90 37t-37 92.5z" />
<glyph unicode="&#x202f;" horiz-adv-x="392" />
<glyph unicode="&#x2039;" horiz-adv-x="425" d="M8 553l246 311h213l-260 -325l143 -318h-192z" />
<glyph unicode="&#x203a;" horiz-adv-x="425" d="M-47 221l260 328l-143 315h192l152 -332l-246 -311h-215z" />
<glyph unicode="&#x205f;" horiz-adv-x="491" />
<glyph unicode="&#x20ac;" horiz-adv-x="1378" d="M98 489l39 148h139q12 92 27 147h-145l41 148h145q178 494 719 493q198 1 323 -67l-51 -193q-117 74 -282 74q-328 0 -447 -307h524l-40 -148h-533q-18 -59 -27 -147h527l-41 -148h-492q4 -168 107.5 -249.5t277.5 -81.5q193 0 391 92l-188 -238q-133 -43 -260 -43 q-274 0 -427 139.5t-155 380.5h-172z" />
<glyph unicode="&#x2122;" horiz-adv-x="1513" d="M256 1319l35 127h540l-34 -127h-191l-147 -553h-158l148 553h-193zM682 768l246 678h178l51 -350l232 350h178l-107 -678h-149l78 467l-304 -469h-14l-72 473l-165 -471h-152z" />
<glyph unicode="&#xe000;" horiz-adv-x="1013" d="M0 0v1014h1014v-1014h-1014z" />
<glyph unicode="&#xfb01;" horiz-adv-x="1110" d="M14 0l228 840h-129l147 172h29l37 135q49 180 150.5 253t248.5 73q80 0 168 -25l-49 -176q-49 29 -113 28q-74 0 -115 -48t-69 -150l-25 -90h197l-47 -172h-195l-225 -840h-238zM592 0l272 1012h232l-273 -1012h-231zM944 1360q0 49 37 84t90 35t89 -34t36 -83 q0 -47 -35 -83t-90 -36q-53 0 -90 34t-37 83z" />
<glyph unicode="&#xfb02;" horiz-adv-x="1110" d="M14 0l228 840h-129l147 172h29l37 135q49 180 150.5 253t248.5 73q80 0 168 -25l-49 -176q-49 29 -113 28q-74 0 -115 -48t-69 -150l-25 -90h197l-47 -172h-195l-225 -840h-238zM590 0l387 1446h233l-383 -1446h-237z" />
</font>
</defs>
</svg>
