<?xml version="1.0" standalone="no"?>
<!DOCTYPE svg PUBLIC "-//W3C//DTD SVG 1.1//EN" "http://www.w3.org/Graphics/SVG/1.1/DTD/svg11.dtd" >
<svg xmlns="http://www.w3.org/2000/svg">
<metadata></metadata>
<defs>
<font id="delta_jaegermediumitalic" horiz-adv-x="1236" >
<font-face units-per-em="2048" ascent="1638" descent="-410" />
<missing-glyph horiz-adv-x="555" />
<glyph horiz-adv-x="2048" />
<glyph horiz-adv-x="2048" />
<glyph unicode="&#xd;" horiz-adv-x="681" />
<glyph unicode=" "  horiz-adv-x="555" />
<glyph unicode="&#x09;" horiz-adv-x="555" />
<glyph unicode="&#xa0;" horiz-adv-x="555" />
<glyph unicode="!" horiz-adv-x="598" d="M29 152q0 74 50 123t122 49q74 0 123 -50t49 -122q0 -74 -49.5 -123t-124.5 -49q-72 0 -121 50t-49 122zM147 436l230 1010h340l-281 -909z" />
<glyph unicode="&#x22;" horiz-adv-x="727" d="M246 899l82 623h260l-250 -623h-92zM602 899l84 623h258l-248 -623h-94z" />
<glyph unicode="#" horiz-adv-x="1368" d="M74 395l63 238h246l59 198h-249l61 240h256l108 375h248l-108 -375h178l108 375h244l-108 -375h241l-61 -240h-250l-57 -198h256l-64 -238h-262l-115 -395h-245l116 395h-178l-117 -395h-245l114 395h-239zM629 633h178l61 198h-180z" />
<glyph unicode="$" horiz-adv-x="1150" d="M18 78l82 287q150 -100 322 -101q109 0 169 44t60 124q0 39 -23.5 77t-49 62.5t-74.5 65.5l-68 55q-156 129 -155 289q0 164 120.5 281.5t313.5 134.5l67 239h258l-69 -250q123 -23 235 -75l-78 -283q-4 2 -24.5 17.5t-29.5 21.5t-31.5 19.5t-39 19.5t-39 14t-47 12.5 t-49.5 4.5q-82 0 -145.5 -33t-63.5 -111q0 -80 113 -176l66 -57q59 -51 94 -88t66.5 -104.5t31.5 -143.5q0 -178 -132 -295t-306 -129l-72 -256h-258l72 256q-180 20 -316 78z" />
<glyph unicode="%" horiz-adv-x="1984" d="M133 793q0 115 40 238.5t114 219.5q125 164 313 164q170 0 245 -87t75 -224q0 -98 -35 -220t-94 -216q-121 -190 -330 -191q-170 0 -249 92.5t-79 223.5zM379 766q0 -104 88 -104q76 0 125 116q37 82 62.5 188.5t25.5 155.5q0 106 -84 107q-72 0 -123 -99 q-33 -63 -63.5 -182t-30.5 -182zM492 0l876 1399h234l-879 -1399h-231zM1171 299q0 115 40 239t114 220q125 164 313 164q170 0 245 -87t75 -225q0 -98 -35 -220t-94 -216q-121 -190 -330 -190q-170 0 -249 92t-79 223zM1417 272q0 -104 88 -104q76 0 125 117 q37 82 62.5 188.5t25.5 155.5q0 106 -84 106q-72 0 -123 -98q-33 -63 -63.5 -182t-30.5 -183z" />
<glyph unicode="&#x26;" horiz-adv-x="1492" d="M61 369q0 193 123 313.5t318 157.5q-2 2 -12.5 20.5t-15.5 28.5t-15 32.5t-15.5 41t-9.5 46t-4 54.5q0 170 131 293t350 123q182 0 316.5 -97.5t134.5 -273.5q0 -143 -95.5 -248.5t-256.5 -150.5l440 -557l-260 -203l-221 280l-230 -229q-113 -29 -219 -29 q-203 0 -331 107.5t-128 290.5zM420 399q0 -78 66.5 -131t183.5 -53q29 0 55.5 2t46 5t47 10.5t39.5 11.5t42 13t40 11l-278 357q-242 -57 -242 -226zM766 1100q0 -76 80 -189q80 20 146.5 71.5t66.5 135.5q0 59 -39 99t-100 40q-66 0 -110 -46t-44 -111z" />
<glyph unicode="'" horiz-adv-x="370" d="M246 899l82 623h260l-250 -623h-92z" />
<glyph unicode="(" horiz-adv-x="626" d="M82 311q0 360 154 682q80 170 202.5 327t249.5 251h277q-215 -229 -349 -459q-115 -199 -178 -432.5t-63 -458.5q0 -268 90 -518h-256q-127 266 -127 608z" />
<glyph unicode=")" horiz-adv-x="626" d="M-281 -295q205 213 349 459q115 199 178 431t63 458q0 272 -90 518h256q129 -250 129 -653q0 -307 -155 -635q-78 -168 -201 -326t-250 -252h-279z" />
<glyph unicode="*" horiz-adv-x="854" d="M246 1202l102 164l182 -117l56 211l186 -53l-53 -203l213 17l12 -191l-215 -16l80 -199l-178 -76l-82 201l-166 -137l-123 147l164 140z" />
<glyph unicode="+" horiz-adv-x="1482" d="M199 530l71 271h381l109 409h346l-111 -409h381l-71 -271h-381l-113 -417h-344l113 417h-381z" />
<glyph unicode="," horiz-adv-x="512" d="M-188 -285l305 574h313l-432 -574h-186z" />
<glyph unicode="-" horiz-adv-x="894" d="M27 424l225 227h637l-227 -227h-635z" />
<glyph unicode="." horiz-adv-x="512" d="M23 154q0 72 49 121t123 49q72 0 122 -50.5t50 -122t-50.5 -121.5t-124 -50t-121.5 50t-48 124z" />
<glyph unicode="/" horiz-adv-x="854" d="M-135 0l913 1446h330l-918 -1446h-325z" />
<glyph unicode="0" horiz-adv-x="1280" d="M98 473q0 86 21.5 198.5t76 247t133.5 244t208 184t286 74.5q223 0 343 -142t120 -359q0 -94 -22.5 -209t-78 -246t-135 -238.5t-207.5 -178.5t-282 -71q-125 0 -218 45.5t-138 103.5t-72 137t-31 123t-4 87zM440 418q0 -184 150 -185q86 0 158.5 101.5t112.5 239 t61.5 249t21.5 156.5q0 84 -36 135t-105 51q-104 0 -192.5 -148.5t-129.5 -317.5t-41 -281z" />
<glyph unicode="1" horiz-adv-x="1280" d="M381 0l278 1028l-245 -80l78 285l618 184l-383 -1417h-346z" />
<glyph unicode="2" horiz-adv-x="1280" d="M8 0l66 240l583 493q39 33 60.5 53.5t54.5 57.5t49.5 73.5t16.5 73.5q0 51 -20.5 86t-52.5 51.5t-59.5 22.5t-52.5 6q-33 0 -68.5 -8t-70.5 -23.5t-64.5 -32t-61.5 -38t-50.5 -34.5t-41 -30.5t-24.5 -19.5l88 332q207 119 396 118q190 0 311 -107.5t121 -277.5 q0 -244 -307 -491l-349 -281h603l-256 -264h-871z" />
<glyph unicode="3" horiz-adv-x="1280" d="M63 76l80 293q4 -2 28 -18.5t40 -27t49 -26.5t61.5 -26.5t68.5 -17.5t79 -7q90 0 165 49t75 145.5t-80 142.5t-191 46h-76l185 213h45q90 0 161.5 47t71.5 133q0 12 -5 29.5t-19.5 45t-51 45t-90.5 17.5q-57 0 -120.5 -27.5t-98 -52t-98.5 -75.5l84 317q178 100 342 100 q178 0 287.5 -96t109.5 -248q0 -39 -11 -81t-39 -95t-92.5 -102t-156.5 -80q29 -12 56.5 -30.5t65.5 -53.5t60.5 -89t22.5 -120q0 -182 -154.5 -315.5t-424.5 -133.5q-211 0 -429 99z" />
<glyph unicode="4" horiz-adv-x="1280" d="M35 307l67 228l691 864h479l-228 -840h164l-168 -252h-67l-82 -307h-334l82 307h-604zM436 559h287l176 608z" />
<glyph unicode="5" horiz-adv-x="1280" d="M76 82l78 293q168 -125 342 -125q104 0 188 54t84 159q0 66 -36 114t-92 70.5t-107.5 31.5t-100.5 9q-55 0 -170 -16l311 727h768l-69 -260h-473l-103 -240q45 -6 92.5 -17.5t111 -42t111.5 -73.5t81.5 -118t33.5 -167q0 -225 -174 -364.5t-444 -139.5q-203 0 -432 105z " />
<glyph unicode="6" horiz-adv-x="1280" d="M137 455q0 254 178.5 511t481.5 433h524q-147 -53 -343 -191.5t-333 -326.5q88 35 180 34q164 0 266.5 -106.5t102.5 -269.5q0 -96 -34 -191.5t-100.5 -180.5t-178 -137.5t-252.5 -52.5q-223 0 -357.5 128t-134.5 350zM471 422q0 -80 43 -134.5t117 -54.5q57 0 102 32 t68.5 78t35 90t11.5 81q0 78 -41 129t-117 51q-102 0 -160.5 -84t-58.5 -188z" />
<glyph unicode="7" horiz-adv-x="1280" d="M119 0l721 1139h-559l69 260h1041l-889 -1399h-383z" />
<glyph unicode="8" horiz-adv-x="1280" d="M72 381q0 156 103.5 254t238.5 123q-141 88 -142 270q0 41 13.5 87t51.5 102.5t94 100.5t152.5 73.5t215.5 29.5q199 0 334 -99t135 -271q0 -78 -32 -141.5t-83 -101.5t-92 -59.5t-80 -31.5q33 -20 52.5 -35.5t54 -51.5t53 -87t18.5 -113q0 -80 -33.5 -156.5t-99 -144.5 t-180.5 -110t-258 -42q-250 0 -383 118t-133 286zM420 406q0 -78 47 -126.5t129 -48.5q96 0 155.5 73t59.5 153q0 74 -50 117.5t-124 43.5q-109 0 -163 -72.5t-54 -139.5zM596 971q0 -55 30.5 -89t60.5 -43.5t61 -9.5q59 0 123.5 47.5t64.5 143.5q0 59 -44 98t-110 39 q-76 0 -131 -55t-55 -131z" />
<glyph unicode="9" horiz-adv-x="1280" d="M68 0q455 207 673 520q-84 -35 -176 -35q-172 0 -272 110t-100 271q0 233 164.5 394t402.5 161q227 0 359 -133t132 -354q0 -145 -58 -288.5t-137 -244t-180.5 -192.5t-164 -136t-113.5 -73h-530zM541 889q0 -96 49 -137t108 -41q76 0 146.5 70.5t70.5 199.5 q0 76 -44 129t-115 53q-96 0 -155.5 -86t-59.5 -188z" />
<glyph unicode=":" horiz-adv-x="598" d="M43 154q0 72 50 122t124 50t122 -49t48 -123q0 -72 -49 -122t-123 -50t-123 49t-49 123zM219 852q0 72 50 122t124 50t122 -49t48 -123q0 -72 -49 -122t-123 -50t-123 49t-49 123z" />
<glyph unicode=";" horiz-adv-x="598" d="M-164 -285l305 574h316l-434 -574h-187zM270 852q0 72 50.5 122t124 50t121.5 -49t48 -123q0 -72 -49 -122t-122.5 -50t-123 49t-49.5 123z" />
<glyph unicode="&#x3c;" horiz-adv-x="1482" d="M233 526l84 316l1074 454l-91 -344l-714 -276l561 -293l-86 -317z" />
<glyph unicode="=" horiz-adv-x="1482" d="M139 256l78 293h1077l-80 -293h-1075zM264 721l78 291h1075l-78 -291h-1075z" />
<glyph unicode="&#x3e;" horiz-adv-x="1482" d="M184 70l92 342l713 278l-561 291l86 319l829 -462l-86 -314z" />
<glyph unicode="?" horiz-adv-x="937" d="M158 152q0 74 50 123t124 49t122 -49t48 -121q0 -74 -49.5 -124t-123 -50t-122.5 50t-49 122zM240 1112l79 295q174 66 343 66q63 0 128.5 -18.5t127 -56.5t100.5 -109.5t39 -168.5q0 -160 -125 -275.5t-297 -131.5l-43 -160l-340 -109l123 455q27 -4 76 -4q102 0 180 43 t78 143q0 20 -11.5 48t-55.5 56.5t-112 28.5q-115 0 -290 -102z" />
<glyph unicode="@" horiz-adv-x="1761" d="M119 481q0 414 282.5 695.5t696.5 281.5q297 0 469 -154.5t172 -420.5q0 -289 -169 -514.5t-386 -225.5q-182 0 -197 170l-156 -161q-12 0 -30.5 -1t-24.5 -1q-133 0 -205.5 76.5t-72.5 215.5q0 250 178 437.5t418 187.5q166 0 323 -72l-133 -393q-59 -174 -59 -215 q0 -51 45 -51q41 0 88 53q82 92 131 221t49 252q0 205 -124 318.5t-349 113.5q-311 0 -525 -229t-214 -565q0 -262 174 -417t467 -155q346 0 651 242l-90 -262q-299 -164 -621 -164q-360 0 -574 199.5t-214 537.5zM733 463q0 -145 119 -146q57 1 137 58l164 499 q-47 18 -96 19q-168 0 -262 -199q-61 -127 -62 -231z" />
<glyph unicode="A" horiz-adv-x="1492" d="M-131 0l950 1446h400l133 -1446h-363l-24 289h-523l-182 -289h-391zM596 541h354l-39 508z" />
<glyph unicode="B" horiz-adv-x="1366" d="M0 0l389 1446h524q217 0 339 -91t122 -255q0 -86 -37 -154.5t-93 -109.5t-111.5 -64.5t-104.5 -32.5q225 -70 225 -311q0 -68 -27.5 -137.5t-88 -137t-176 -110.5t-271.5 -43h-690zM432 258h127q164 0 248 58.5t84 156.5q0 170 -236 170h-120zM543 670l202 192 q115 0 198 42t83 140q0 86 -59.5 113t-159.5 27h-127z" />
<glyph unicode="C" horiz-adv-x="1366" d="M137 616q0 162 62.5 315.5t179.5 278.5t301 201t407 76q227 0 429 -66l-76 -291q-166 96 -348 97q-254 0 -417 -180.5t-163 -409.5q0 -178 110.5 -300t344.5 -122q45 0 93 6t84 14.5t79 20.5t65.5 20.5t55 20.5t34.5 14l-291 -317q-158 -33 -262 -33q-324 0 -506 185.5 t-182 469.5z" />
<glyph unicode="D" horiz-adv-x="1536" d="M0 0l389 1446h410q96 0 157.5 -4t145.5 -19.5t150.5 -51.5t119.5 -95q141 -160 141 -416q0 -106 -24.5 -214.5t-88 -227.5t-158.5 -210t-250.5 -149.5t-350.5 -58.5h-641zM440 272h140q242 0 372 127q82 80 129 202t47 241q0 41 -3 73.5t-22.5 84t-52 86t-99 60 t-158.5 25.5h-111z" />
<glyph unicode="E" d="M-2 0l389 1446h963l-78 -279h-594l-78 -290h514l-76 -277h-510l-88 -326h736l-267 -274h-911z" />
<glyph unicode="F" horiz-adv-x="1110" d="M0 0l389 1446h963l-76 -279h-584l-86 -321h488l-76 -279h-486l-153 -567h-379z" />
<glyph unicode="G" horiz-adv-x="1662" d="M137 627q0 127 38 248.5t118 233.5t194.5 196t280.5 133t362 49q260 0 531 -84l-76 -289q-207 121 -452 121q-154 0 -279 -56.5t-198.5 -145.5t-112.5 -190.5t-39 -203.5q0 -184 116.5 -306t309.5 -122q100 0 176 33l78 288h-350l206 242h564l-185 -688 q-293 -125 -542 -125q-324 0 -532 178t-208 488z" />
<glyph unicode="H" horiz-adv-x="1579" d="M0 0l389 1446h369l-150 -553h572l147 553h369l-387 -1446h-369l164 612h-572l-163 -612h-369z" />
<glyph unicode="I" horiz-adv-x="641" d="M0 0l389 1446h367l-387 -1446h-369z" />
<glyph unicode="J" horiz-adv-x="894" d="M-135 80l201 227q73 -65 131 -65h2q68 0 106.5 56t77.5 200l254 948h379l-287 -1067q-113 -416 -526 -416q-96 0 -192.5 38t-145.5 79z" />
<glyph unicode="K" horiz-adv-x="1409" d="M0 0l389 1446h371l-172 -635l620 635h437l-684 -698l350 -748h-383l-353 766l-204 -766h-371z" />
<glyph unicode="L" horiz-adv-x="1193" d="M0 0l387 1446h375l-316 -1170h701l-258 -276h-889z" />
<glyph unicode="M" horiz-adv-x="1921" d="M-57 0l536 1446h393l109 -866l565 866h402l-238 -1446h-367l203 1010l-672 -1010h-100l-127 1024l-340 -1024h-364z" />
<glyph unicode="N" horiz-adv-x="1662" d="M2 0l387 1446h316l501 -852l228 852h348l-389 -1450h-219l-568 954l-246 -950h-358z" />
<glyph unicode="O" horiz-adv-x="1748" d="M139 623q0 365 247 614.5t628 249.5q342 0 527 -194.5t185 -471.5q0 -150 -54 -297t-157.5 -275t-280.5 -208t-396 -80q-326 0 -512.5 185.5t-186.5 476.5zM512 618q0 -158 89 -266t263 -108q154 0 269.5 91t171 225t55.5 284q0 170 -97.5 271.5t-250.5 101.5 q-152 0 -270.5 -96.5t-174 -231t-55.5 -271.5z" />
<glyph unicode="P" horiz-adv-x="1323" d="M2 0l387 1446h553q229 0 354 -108.5t125 -280.5q0 -117 -60.5 -216.5t-162.5 -164.5q-166 -106 -436 -107q-88 0 -227 21l-158 -590h-375zM545 623l233 215q12 -2 39 -2q94 0 163 55t69 127q0 160 -218 160h-137z" />
<glyph unicode="Q" horiz-adv-x="1705" d="M137 610q0 154 55.5 307.5t153.5 272.5q248 297 662 297q313 0 496.5 -184.5t183.5 -464.5q0 -182 -77 -349t-186 -284l242 -295l-244 -205l-260 318q-168 -61 -348 -62q-434 0 -606 332q-72 137 -72 317zM510 604q0 -164 92 -263t236 -99q125 0 223 65.5t152.5 163.5 t82 197.5t27.5 183.5q0 158 -88 261.5t-234 103.5q-207 0 -344 -179q-68 -86 -107.5 -204.5t-39.5 -229.5z" />
<glyph unicode="R" horiz-adv-x="1366" d="M2 0l387 1446h506q229 0 347 -102.5t118 -278.5q0 -145 -96.5 -264t-237.5 -154l238 -647h-375l-195 612q-41 -4 -80 -4q-53 0 -88 4l-164 -612h-360zM535 643l210 201q4 0 19.5 -1t28.5 -1q86 0 149.5 49t63.5 133q0 70 -48.5 114t-146.5 44h-131z" />
<glyph unicode="S" horiz-adv-x="1150" d="M-8 68l82 301q168 -133 342 -133q127 0 187.5 63t60.5 139q0 43 -25 85t-47.5 63.5t-65.5 58.5l-53 45q-98 82 -144 161t-46 185q0 197 151.5 324t372.5 127q219 0 424 -103l-78 -290q-127 127 -293 127q-88 0 -149.5 -48.5t-61.5 -132.5q0 -41 22.5 -80.5t44 -61 t64.5 -58.5l70 -60q55 -47 88 -82.5t66.5 -109.5t33.5 -158q0 -123 -67 -231q-41 -66 -103.5 -114t-119 -70.5t-124 -36t-99 -15.5t-66.5 -2q-254 1 -467 107z" />
<glyph unicode="T" horiz-adv-x="1193" d="M195 1165l75 281h1166l-76 -281h-379l-313 -1165h-373l313 1165h-413z" />
<glyph unicode="U" horiz-adv-x="1579" d="M143 442q0 76 45 248l203 756h375l-221 -821q-29 -104 -29 -168q0 -92 61.5 -155.5t178.5 -63.5q238 0 321 307l242 901h375l-256 -957q-41 -150 -91.5 -231.5t-127.5 -146.5q-176 -150 -471 -150q-158 0 -290 47t-223.5 160t-91.5 274z" />
<glyph unicode="V" horiz-adv-x="1492" d="M258 1446h367l69 -1028l645 1028h414l-989 -1446h-350z" />
<glyph unicode="W" horiz-adv-x="2004" d="M223 0l33 1446h356l-57 -1010l643 1014h84l131 -1012l473 1008h375l-737 -1446h-348l-97 786l-510 -786h-346z" />
<glyph unicode="X" horiz-adv-x="1449" d="M-123 0l719 770l-303 676h381l176 -412l379 412h430l-668 -717l326 -729h-377l-207 451l-420 -451h-436z" />
<glyph unicode="Y" horiz-adv-x="1409" d="M256 1446h375l162 -610l450 610h422l-776 -944l-133 -502h-367l143 537z" />
<glyph unicode="Z" horiz-adv-x="1366" d="M-70 0l72 252l930 915h-690l75 279h1172l-80 -281l-915 -884h845l-274 -281h-1135z" />
<glyph unicode="[" horiz-adv-x="636" d="M-80 -295l500 1868h489l-63 -234h-176l-377 -1400h178l-61 -234h-490z" />
<glyph unicode="\" horiz-adv-x="854" d="M250 1446h332l135 -1446h-328z" />
<glyph unicode="]" horiz-adv-x="636" d="M-207 -293l64 232h176l377 1400h-179l64 234h487l-499 -1866h-490z" />
<glyph unicode="^" horiz-adv-x="1482" d="M154 575l671 871h324l192 -871h-337l-91 560l-397 -560h-362z" />
<glyph unicode="_" horiz-adv-x="1024" d="M76 -256h1065v-211h-1065v211z" />
<glyph unicode="`" horiz-adv-x="555" d="M16 1411l82 242l443 -342l-76 -209z" />
<glyph unicode="a" horiz-adv-x="1193" d="M51 330q0 94 41 222t146 249q210 239 535 239h3q209 0 420 -102l-188 -698q-27 -121 -27 -168q0 -52 6 -72h-301q-12 43 -12 86q0 47 6 90l-186 -182q-57 -16 -127 -17q-94 0 -160 34t-97.5 90.5t-45 111.5t-13.5 117zM377 358q0 -174 170 -174q84 0 145 49l154 568 q-49 18 -101 18q-182 0 -288 -186q-80 -141 -80 -275z" />
<glyph unicode="b" horiz-adv-x="1193" d="M0 74l369 1372h321l-164 -610l193 190q72 14 115 14q31 0 65.5 -6t80.5 -29.5t82 -60.5t61.5 -106.5t25.5 -161.5q0 -129 -51 -262t-137 -230q-188 -211 -510 -211q-272 0 -451 101zM362 223q42 -28 105 -28h4q150 0 248 133q55 76 77.5 167t22.5 146q0 98 -45 142 t-106 44q-72 0 -156 -51z" />
<glyph unicode="c" horiz-adv-x="980" d="M72 426q0 240 161 418q181 196 473 196h3q176 0 331 -65l-65 -246q-109 88 -236 88q-147 0 -240 -111.5t-93 -261.5q0 -100 61 -177t219 -77q104 1 268 54l-237 -250q-82 -20 -158 -21q-178 0 -299 80q-188 123 -188 373z" />
<glyph unicode="d" horiz-adv-x="1193" d="M43 334q0 125 51 259t142 236q188 211 483 211q86 0 168 -22l114 428h324l-389 -1446h-322l56 201l-189 -207q-59 -16 -125 -17q-145 0 -229 100.5t-84 256.5zM373 373q0 -96 49 -138t110 -42q95 0 150 57l147 547q-47 22 -99 22h-5q-131 0 -225 -110q-55 -63 -91 -157.5 t-36 -178.5z" />
<glyph unicode="e" horiz-adv-x="1193" d="M70 451q0 244 176 416.5t454 172.5q80 0 156 -21.5t144.5 -67.5t110.5 -129t42 -191q0 -72 -23 -166h-733q0 -82 58 -160q86 -119 272 -119q149 0 352 68l-239 -254q-102 -27 -232 -27q-311 0 -448 191q-90 123 -90 287zM436 633h416v31q0 86 -49 128t-119 42 q-59 0 -107.5 -24t-77 -62.5t-42 -64t-21.5 -50.5z" />
<glyph unicode="f" horiz-adv-x="681" d="M12 0l209 774h-143l184 238h23l28 106q96 356 473 357q115 0 197 -27l-63 -236q-57 29 -117 29q-76 0 -117 -47t-65 -137l-13 -45h205l-63 -238h-205l-207 -774h-326z" />
<glyph unicode="g" horiz-adv-x="1193" d="M-84 -315l72 260q152 -133 325 -133q150 0 230 80.5t125 257.5l28 110l-204 -197q-61 -12 -107 -12q-35 0 -70.5 7.5t-82 30t-82 59t-60 105.5t-24.5 157q0 258 189 444t497 186q249 0 452 -88l-241 -897q-47 -180 -147.5 -289.5t-216.5 -147.5t-265 -38q-209 0 -418 105 zM391 436q0 -18 4 -36.5t16.5 -53.5t49.5 -57.5t92 -22.5q72 0 158 45l131 494q-53 22 -112 22h-5q-139 0 -236.5 -123.5t-97.5 -267.5z" />
<glyph unicode="h" d="M-18 0l389 1446h323l-168 -631l203 197q99 28 171 28h5q47 0 93 -11t90.5 -36.5t72 -76t27.5 -117.5q0 -63 -33 -178l-168 -621h-321l143 539q27 100 27 141q0 61 -41 95t-103 34q-80 0 -184 -57l-201 -752h-325z" />
<glyph unicode="i" horiz-adv-x="555" d="M-20 0l272 1012h326l-273 -1012h-325zM313 1333q0 63 45 110.5t113 47.5q72 0 118 -44t46 -114q0 -68 -48 -111.5t-116 -43.5t-113 44.5t-45 110.5z" />
<glyph unicode="j" horiz-adv-x="555" d="M-129 -418l381 1430h328l-340 -1262zM313 1333q0 63 45 110.5t113 47.5q72 0 118 -44t46 -114q0 -68 -48 -111.5t-116 -43.5t-113 44.5t-45 110.5z" />
<glyph unicode="k" horiz-adv-x="1150" d="M-18 0l387 1446h323l-225 -836l442 402h391l-505 -461l252 -551h-342l-252 557l-148 -557h-323z" />
<glyph unicode="l" horiz-adv-x="555" d="M-20 0l387 1446h327l-387 -1446h-327z" />
<glyph unicode="m" horiz-adv-x="1835" d="M-18 0l270 1012h326l-56 -207l205 209q102 26 167 26h5q111 0 179.5 -57t68.5 -160v-26l211 217q83 26 162 26h6q123 0 192.5 -63.5t69.5 -165.5q0 -53 -31 -168l-172 -643h-328l150 559q27 90 27 133q0 47 -27 75t-50.5 33t-43.5 5q-96 0 -178 -70q-4 -43 -43 -186 l-146 -549h-330l150 557q27 98 27 137q0 53 -33 82t-84 29q-84 0 -172 -64l-199 -741h-323z" />
<glyph unicode="n" d="M-18 0l272 1012h324l-54 -201l211 203q91 26 168 26h6q121 0 200 -63.5t79 -190.5q0 -35 -29 -143l-172 -643h-321l141 526q31 119 31 152q0 23 -5.5 46.5t-41 54t-99.5 30.5q-92 0 -184 -57l-201 -752h-325z" />
<glyph unicode="o" d="M72 432q0 106 40 213t113.5 196t192.5 144t260 55q131 0 231.5 -44t153.5 -115.5t78.5 -148.5t25.5 -157q0 -88 -32.5 -186t-98 -194.5t-188.5 -159t-281 -62.5q-221 0 -358 121t-137 338zM395 395q0 -25 4 -49t18.5 -65t52.5 -66t95 -25q123 0 201 136t78 290 q0 111 -51.5 159t-118.5 48q-90 0 -157.5 -78.5t-94.5 -172t-27 -177.5z" />
<glyph unicode="p" horiz-adv-x="1193" d="M-133 -422l385 1434h323l-53 -193l193 195q65 22 117 22h4q27 0 54.5 -3t78.5 -23.5t88 -56t65.5 -108.5t28.5 -173q0 -207 -127 -401.5t-326 -262.5q-102 -35 -235 -35q-70 0 -162 19l-113 -414h-321zM362 215q45 -20 107 -20q137 0 236 122q49 63 81.5 152.5 t32.5 167.5q0 102 -48 143t-112 41q-77 0 -149 -51z" />
<glyph unicode="q" horiz-adv-x="1193" d="M49 338q0 88 23.5 181t78 187.5t132 168t196.5 119.5t260 46q119 0 248 -30.5t211 -69.5l-364 -1362h-324l162 604l-195 -192q-59 -12 -102 -13q-158 0 -242 100.5t-84 260.5zM381 367q0 -78 41 -128.5t113 -50.5q67 1 153 52l146 551q-53 28 -109 28h-4 q-143 0 -241.5 -137t-98.5 -315z" />
<glyph unicode="r" horiz-adv-x="854" d="M-18 0l270 1012h328l-56 -207l228 209q68 18 116 18q70 0 129 -24l-82 -306q-104 88 -249 89q-74 0 -154 -37l-203 -754h-327z" />
<glyph unicode="s" horiz-adv-x="894" d="M-29 61l68 252q2 0 14.5 -10t26.5 -19.5t34.5 -22.5t44 -24.5t49 -20.5t55.5 -15t56 -6q68 0 102 35.5t34 72.5q0 31 -17.5 56.5t-37 40t-68.5 42.5l-33 21q-143 90 -143 235q0 141 107.5 241.5t311.5 100.5q176 0 336 -77l-63 -240q-115 98 -234 98q-72 0 -105.5 -33.5 t-33.5 -74.5q0 -35 20.5 -55.5t86.5 -65.5l41 -27q31 -20 48 -33.5t45.5 -44t43 -72.5t14.5 -93q0 -152 -126 -250.5t-314 -98.5q-175 0 -363 88z" />
<glyph unicode="t" horiz-adv-x="768" d="M88 774l180 238h23l37 137l354 131l-72 -268h219l-65 -238h-217l-96 -358q-23 -86 -23 -117q0 -41 32 -69.5t99 -28.5q16 0 40 2t44.5 6t38.5 7t31 5l12 2l-215 -225q-80 -25 -145 -25q-123 0 -199 65.5t-76 176.5q0 41 23 131l114 428h-139z" />
<glyph unicode="u" d="M51 227q0 63 27 162l166 623h329l-149 -555q-25 -98 -25 -129q0 -57 39 -92t97 -35q86 0 186 55l203 756h327l-272 -1012h-330l56 199l-205 -203q-82 -23 -158 -23q-115 0 -203 60.5t-88 193.5z" />
<glyph unicode="v" horiz-adv-x="1150" d="M117 1012h325l45 -713l414 713h371l-688 -1012h-346z" />
<glyph unicode="w" horiz-adv-x="1622" d="M106 0l29 1012h318l-50 -662l408 662h252l37 -662l330 662h315l-537 -1012h-342l-30 616l-390 -616h-340z" />
<glyph unicode="x" horiz-adv-x="1150" d="M-158 0l561 539l-260 473h344l140 -256l272 256h381l-524 -500l276 -512h-346l-154 297l-305 -297h-385z" />
<glyph unicode="y" horiz-adv-x="1150" d="M-193 -389l140 219q41 -8 76 -8q150 0 213 139l20 45l-117 1006h332l45 -684l391 684h379l-766 -1131q-53 -78 -94 -126t-100.5 -92t-134 -63.5t-173.5 -19.5q-90 0 -211 31z" />
<glyph unicode="z" horiz-adv-x="1067" d="M-76 0l60 205l610 573h-461l62 234h890l-67 -236l-588 -540h553l-233 -236h-826z" />
<glyph unicode="{" horiz-adv-x="681" d="M45 545l53 203q117 6 159 41.5t77 171.5l72 276q51 201 124.5 267.5t260.5 66.5h167l-53 -201h-37q-66 0 -99.5 -28.5t-53.5 -104.5l-90 -336q-39 -143 -86 -199.5t-158 -72.5q117 -41 117 -158q0 -37 -19 -111l-63 -237q-29 -111 -29 -143q0 -74 96 -74h29l-53 -203 h-146q-121 0 -185.5 51t-64.5 148q0 61 23 139l80 291q18 70 18 106q0 53 -29.5 76t-109.5 31z" />
<glyph unicode="|" horiz-adv-x="567" d="M-86 -299l500 1868h311l-500 -1868h-311z" />
<glyph unicode="}" horiz-adv-x="681" d="M-207 -297l55 203h37q66 0 98.5 28.5t53.5 104.5l92 336q39 145 86 199.5t156 72.5q-117 43 -117 156q0 39 18 112l64 238q29 111 29 143q0 74 -97 74h-28l55 203h143q121 0 186.5 -51.5t65.5 -147.5q0 -59 -22 -139l-82 -293q-18 -70 -19 -104q0 -53 31 -76t111 -31 l-56 -203q-115 -6 -157.5 -41.5t-77.5 -171.5l-72 -276q-35 -137 -69.5 -201.5t-108.5 -99.5t-207 -35h-168z" />
<glyph unicode="~" horiz-adv-x="1482" d="M154 426l98 371q143 117 289 116q104 0 243 -73l105 -56q100 -51 170 -51q72 0 149.5 39t206.5 150l-96 -367q-170 -131 -336 -131q-96 0 -240 76l-65 35q-121 66 -186 65q-147 0 -338 -174z" />
<glyph unicode="&#xa1;" horiz-adv-x="598" d="M-18 0l280 909l289 101l-232 -1010h-337zM326 1294q0 74 49 123t125 49q72 0 121 -50t49 -122q0 -74 -50.5 -123t-121.5 -49q-74 0 -123 50t-49 122z" />
<glyph unicode="&#xa2;" horiz-adv-x="1052" d="M111 430q0 238 144 409t361 191l62 234h258l-64 -238q105 -12 185 -55l-68 -260q-92 84 -217 84q-147 0 -230 -100.5t-83 -245.5q0 -100 62.5 -164t191.5 -64q127 0 262 55l-236 -268q-53 -12 -145 -16l-64 -240h-256l74 277q-96 41 -166.5 141t-70.5 260z" />
<glyph unicode="&#xa3;" horiz-adv-x="1366" d="M43 0l227 260l82 307h-258l64 242h260l28 111q31 123 89.5 216t124 146t145.5 86t146.5 43t135.5 10q178 0 355 -69l-74 -273q-117 78 -244 78q-279 0 -348 -311l-8 -37h352l-63 -242h-355l-81 -307h690l-236 -260h-1032z" />
<glyph unicode="&#xa4;" horiz-adv-x="1445" d="M102 266l172 154q-78 125 -77 276q0 188 112 344l-149 170l180 162l147 -168q127 74 283 74q178 0 334 -111l170 152l160 -182l-170 -152q74 -147 73 -280q0 -182 -112 -345l151 -174l-182 -161l-150 174q-141 -74 -276 -74q-184 0 -336 115l-172 -156zM465 698 q0 -131 88 -220t217 -89q123 0 212 89t89 222.5t-86 224.5t-213 91q-131 0 -219 -91.5t-88 -226.5z" />
<glyph unicode="&#xa5;" horiz-adv-x="1460" d="M139 336l49 180h357l8 33l-35 92h-297l51 180h187l-191 578h379l160 -568l446 568h428l-505 -578h188l-51 -180h-297l-90 -96l-11 -29h369l-49 -180h-369l-92 -336h-371l93 336h-357z" />
<glyph unicode="&#xa6;" horiz-adv-x="567" d="M-86 -299l215 803h311l-215 -803h-311zM199 764l215 805h311l-215 -805h-311z" />
<glyph unicode="&#xa7;" horiz-adv-x="1110" d="M-94 -322l78 289q162 -135 278 -135q80 0 115 44t35 85q0 31 -14.5 58.5t-30 43t-48.5 46.5l-88 81q-143 135 -143 299q0 80 31 149t75 109.5t97 71.5t94 43t72 15q-94 102 -95 225q0 150 121 264.5t334 114.5q197 0 367 -115l-76 -281q-141 141 -252 142 q-82 0 -113.5 -41t-31.5 -84q0 -63 102 -156l47 -43q170 -156 170 -305q0 -152 -99.5 -271.5t-250.5 -146.5q78 -115 78 -215q0 -150 -122 -268.5t-345 -118.5q-188 0 -385 100zM406 520q0 -88 100 -188q78 16 125 60t60.5 82t13.5 75q0 55 -27 103t-51 69 q-98 0 -159.5 -60.5t-61.5 -140.5z" />
<glyph unicode="&#xa8;" horiz-adv-x="555" d="M-68 1337q0 59 41 103.5t103 44.5q63 0 105 -42t42 -106q0 -61 -43 -103t-104.5 -42t-102.5 42t-41 103zM332 1337q0 59 41 103.5t102 44.5q63 0 105.5 -42t42.5 -106q0 -61 -43 -103t-104.5 -42t-102.5 42t-41 103z" />
<glyph unicode="&#xa9;" horiz-adv-x="1675" d="M168 727q0 305 211 515t518 210q305 0 517 -212t212 -521q0 -297 -215 -511t-516 -214q-305 0 -516 213t-211 520zM260 721q0 -268 185.5 -456.5t449.5 -188.5q262 0 448.5 188.5t186.5 454.5q0 274 -183.5 462.5t-451.5 188.5q-264 0 -449.5 -188.5t-185.5 -460.5z M473 653q0 229 145.5 379t366.5 150q162 0 291 -74l-72 -225q-70 86 -194 86q-115 0 -191 -89t-76 -221q0 -98 63.5 -153t176.5 -55q88 0 197 38l-168 -217q-68 -18 -131 -18q-182 0 -295 110.5t-113 288.5z" />
<glyph unicode="&#xaa;" horiz-adv-x="768" d="M195 1004q0 111 57 215q135 246 410 245q139 1 274 -67l-123 -451q-16 -63 -16 -104l4 -51h-199q-8 25 -8 61q0 18 4 47l-117 -113q-31 -10 -94 -10q-61 0 -103 26.5t-59.5 67.5t-23.5 73t-6 61zM410 1024q0 -111 106 -111q57 0 92 31l99 363q-27 10 -64 10 q-104 0 -168.5 -98.5t-64.5 -194.5z" />
<glyph unicode="&#xab;" horiz-adv-x="1024" d="M59 592l238 299h287l-252 -316l149 -327h-264zM498 563l262 328h289l-277 -340l137 -303h-264z" />
<glyph unicode="&#xac;" horiz-adv-x="1482" d="M139 522l76 279h1157l-201 -752h-344l127 473h-815z" />
<glyph unicode="&#xad;" horiz-adv-x="894" d="M27 424l225 227h637l-227 -227h-635z" />
<glyph unicode="&#xae;" horiz-adv-x="1675" d="M168 727q0 305 211 515t518 210q305 0 517 -212t212 -521q0 -297 -215 -511t-516 -214q-305 0 -516 213t-211 520zM260 721q0 -268 185.5 -456.5t449.5 -188.5q262 0 448.5 188.5t186.5 454.5q0 274 -183.5 462.5t-451.5 188.5q-264 0 -449.5 -188.5t-185.5 -460.5z M467 301l238 877h235q367 0 367 -246q0 -98 -53.5 -166t-151.5 -96l131 -369h-248l-108 350h-80l-95 -350h-235zM805 688l113 115q14 -2 30 -2q59 0 94 29.5t35 80.5q0 94 -114 95h-72z" />
<glyph unicode="&#xaf;" horiz-adv-x="555" d="M-59 1223l55 219h620l-55 -219h-620z" />
<glyph unicode="&#xb0;" horiz-adv-x="724" d="M106 1171.5q0 145.5 101.5 250t251 104.5t251 -104.5t101.5 -250t-102.5 -249t-249.5 -103.5q-145 0 -249 103.5t-104 249zM346 1176q0 -47 34 -80t81 -33t79.5 33.5t32.5 79.5q0 49 -32.5 81.5t-79.5 32.5t-81 -32.5t-34 -81.5z" />
<glyph unicode="&#xb1;" horiz-adv-x="1482" d="M57 0l74 272h1106l-74 -272h-1106zM264 768l72 270h381l102 377h344l-102 -377h381l-72 -270h-383l-102 -387h-344l102 387h-379z" />
<glyph unicode="&#xb2;" horiz-adv-x="847" d="M86 494l45 165l344 287q133 113 133 191q0 92 -106 92q-102 0 -250 -123l59 231q129 78 264 78q127 0 211 -65.5t84 -186.5q0 -166 -182 -307l-225 -176h387l-176 -186h-588z" />
<glyph unicode="&#xb3;" horiz-adv-x="847" d="M70 535l55 208q96 -80 209 -79q78 0 122 30.5t44 79.5q0 119 -199 119q-31 0 -43 -2q14 18 58 71.5t69 81.5h25q68 2 116.5 29t48.5 76q0 80 -116 80q-49 0 -109.5 -27.5t-101.5 -64.5q12 43 55 221q133 57 248 57q137 0 205.5 -67.5t68.5 -159.5q0 -160 -194 -232 q72 -25 103.5 -80t31.5 -106q0 -121 -100.5 -207t-307.5 -86q-163 1 -288 58z" />
<glyph unicode="&#xb4;" horiz-adv-x="555" d="M16 1106l68 274l457 297l-62 -303z" />
<glyph unicode="&#xb6;" horiz-adv-x="1306" d="M238 -342l258 971q-219 96 -220 344q0 117 53.5 218t147.5 165q74 51 162 70.5t240 19.5h483l-41 -156h-72l-434 -1632h-164l434 1632h-249l-435 -1632h-163z" />
<glyph unicode="&#xb7;" horiz-adv-x="489" d="M82 557q0 76 50 126t124 50q76 0 126 -50t50 -126t-50 -126t-126 -50q-74 0 -124 51t-50 125z" />
<glyph unicode="&#xb8;" horiz-adv-x="555" d="M59 -539l43 158q166 10 166 111q0 37 -26.5 61.5t-73.5 26.5l129 213h160l-86 -133q59 -16 92 -62.5t33 -107.5q0 -135 -126 -199t-311 -68z" />
<glyph unicode="&#xb9;" horiz-adv-x="847" d="M313 494l176 649l-159 -51l55 208l428 121l-250 -927h-250z" />
<glyph unicode="&#xba;" horiz-adv-x="811" d="M213 1071q0 160 112.5 276.5t276.5 116.5q166 0 244 -92t78 -198q0 -66 -22.5 -133.5t-66.5 -128t-122 -99.5t-178 -39q-168 0 -245 88t-77 209zM426 1049q0 -70 31.5 -100.5t77.5 -30.5q61 0 103 55t57.5 114.5t15.5 104.5q0 68 -32 98.5t-75 30.5q-61 0 -104 -55.5 t-58.5 -113.5t-15.5 -103z" />
<glyph unicode="&#xbb;" horiz-adv-x="1024" d="M10 248l277 340l-140 303h267l145 -318l-262 -325h-287zM475 248l252 315l-152 328h267l157 -344l-237 -299h-287z" />
<glyph unicode="&#xbc;" horiz-adv-x="1984" d="M303 494l176 649l-160 -51l56 208l428 121l-250 -927h-250zM416 0l876 1399h234l-879 -1399h-231zM1034 195l58 151l444 559h330l-146 -538h119l-115 -172h-49l-53 -195h-223l53 195h-418zM1313 367h194l115 389q-61 -78 -177 -222.5t-132 -166.5z" />
<glyph unicode="&#xbd;" horiz-adv-x="1984" d="M303 494l176 649l-160 -51l56 208l428 121l-250 -927h-250zM412 0l876 1399h234l-879 -1399h-231zM1063 0l45 166l344 287q133 113 133 190q0 92 -106 92q-102 0 -250 -123l59 232q129 78 264 78q127 0 211 -65.5t84 -186.5q0 -166 -182 -308l-225 -176h387l-176 -186 h-588z" />
<glyph unicode="&#xbe;" horiz-adv-x="1984" d="M123 535l55 208q96 -80 209 -79q78 0 122 30.5t44 79.5q0 119 -199 119q-31 0 -43 -2q14 18 58.5 71.5t68.5 81.5h25q68 2 117 29t49 76q0 80 -117 80q-49 0 -109.5 -27.5t-101.5 -64.5q12 43 55 221q133 57 248 57q137 0 206 -67.5t69 -159.5q0 -160 -195 -232 q72 -25 103.5 -80t31.5 -106q0 -121 -100.5 -207t-306.5 -86q-164 1 -289 58zM514 0l877 1399h233l-879 -1399h-231zM1096 195l57 151l444 559h330l-145 -538h119l-115 -172h-49l-54 -195h-223l53 195h-417zM1374 367h195l114 389q-61 -78 -176.5 -222.5t-132.5 -166.5z" />
<glyph unicode="&#xbf;" horiz-adv-x="937" d="M-2 328q0 160 125 275.5t297 131.5l43 160l340 109l-123 -455q-27 4 -76 4q-102 0 -180 -43t-78 -143q0 -20 11.5 -48t55.5 -57t111 -29q115 0 291 103l-80 -295q-174 -66 -342 -66q-63 0 -128.5 18.5t-127 56.5t-100.5 109.5t-39 168.5zM553 1294q0 74 49 124t123 50 t123 -50t49 -122q0 -74 -50 -123t-124 -49t-122 49t-48 121z" />
<glyph unicode="&#xc0;" horiz-adv-x="1492" d="M-131 0l950 1446h400l133 -1446h-363l-24 289h-523l-182 -289h-391zM596 541h354l-39 508zM752 1763l57 222l524 -265l-49 -192z" />
<glyph unicode="&#xc1;" horiz-adv-x="1492" d="M-131 0l950 1446h400l133 -1446h-363l-24 289h-523l-182 -289h-391zM596 541h354l-39 508zM811 1528l68 233l534 228l-63 -258z" />
<glyph unicode="&#xc2;" horiz-adv-x="1492" d="M-131 0l950 1446h400l133 -1446h-363l-24 289h-523l-182 -289h-391zM596 541h354l-39 508zM686 1526l55 211l355 196l309 -221l-53 -186l-287 168z" />
<glyph unicode="&#xc3;" horiz-adv-x="1492" d="M-131 0l950 1446h400l133 -1446h-363l-24 289h-523l-182 -289h-391zM596 541h354l-39 508zM692 1589l64 219q80 66 182 66q57 0 119 -27l47 -20q78 -35 139 -35q89 0 191 78l-62 -215q-76 -74 -178 -74q-39 0 -107 23l-59 20q-113 39 -149 39q-86 0 -187 -74z" />
<glyph unicode="&#xc4;" horiz-adv-x="1492" d="M-131 0l950 1446h400l133 -1446h-363l-24 289h-523l-182 -289h-391zM596 541h354l-39 508zM686 1716q0 59 42 105.5t105.5 46.5t106.5 -43t43 -108.5t-44 -108.5t-105 -43q-63 0 -105.5 42.5t-42.5 108.5zM1116 1716q0 61 41 106.5t104.5 45.5t106.5 -43t43 -108.5 t-44 -108.5t-105 -43q-63 0 -104.5 42.5t-41.5 108.5z" />
<glyph unicode="&#xc5;" horiz-adv-x="1492" d="M-131 0l950 1446h400l133 -1446h-363l-24 289h-523l-182 -289h-391zM596 541h354l-39 508zM825 1753q0 98 68 162.5t166 64.5q100 0 167.5 -64.5t67.5 -162.5q0 -100 -66.5 -164.5t-169 -64.5t-168 65.5t-65.5 163.5zM967 1753q0 -41 25.5 -68.5t66.5 -27.5t66.5 27.5 t25.5 68.5q0 43 -25.5 68.5t-66.5 25.5t-66.5 -26.5t-25.5 -67.5z" />
<glyph unicode="&#xc6;" horiz-adv-x="2174" d="M-135 0l1280 1446h1151l-76 -281h-567l-76 -291h485l-73 -274h-486l-86 -319h703l-265 -281h-868l88 336h-491l-289 -336h-430zM803 596h344l156 590z" />
<glyph unicode="&#xc7;" horiz-adv-x="1366" d="M137 616q0 162 62.5 315.5t179.5 278.5t301 201t407 76q227 0 429 -66l-76 -291q-166 96 -348 97q-254 0 -417 -180.5t-163 -409.5q0 -178 110.5 -300t344.5 -122q45 0 93 6t84 14.5t79 20.5t65.5 20.5t55 20.5t34.5 14l-291 -317q-131 -27 -196 -31l-45 -69 q61 -18 95 -67t34 -112q0 -96 -68.5 -159.5t-166 -88t-218.5 -26.5l47 164q170 8 170 112q0 39 -27.5 66t-76.5 29l94 155q-281 27 -436.5 207t-155.5 442z" />
<glyph unicode="&#xc8;" d="M-2 0l389 1446h963l-78 -279h-594l-78 -290h514l-76 -277h-510l-88 -326h736l-267 -274h-911zM518 1763l57 222l525 -265l-49 -192z" />
<glyph unicode="&#xc9;" d="M-2 0l389 1446h963l-78 -279h-594l-78 -290h514l-76 -277h-510l-88 -326h736l-267 -274h-911zM653 1528l68 233l534 228l-63 -258z" />
<glyph unicode="&#xca;" d="M-2 0l389 1446h963l-78 -279h-594l-78 -290h514l-76 -277h-510l-88 -326h736l-267 -274h-911zM526 1526l56 211l354 196l309 -221l-53 -186l-287 168z" />
<glyph unicode="&#xcb;" d="M-2 0l389 1446h963l-78 -279h-594l-78 -290h514l-76 -277h-510l-88 -326h736l-267 -274h-911zM526 1716q0 59 42 105.5t105.5 46.5t106.5 -43t43 -108.5t-44 -108.5t-105 -43q-63 0 -105.5 42.5t-42.5 108.5zM956 1716q0 61 41 106.5t104.5 45.5t106.5 -43t43 -108.5 t-44 -108.5t-105 -43q-63 0 -104.5 42.5t-41.5 108.5z" />
<glyph unicode="&#xcc;" horiz-adv-x="641" d="M0 0l389 1446h367l-387 -1446h-369zM283 1763l57 222l524 -265l-49 -192z" />
<glyph unicode="&#xcd;" horiz-adv-x="641" d="M0 0l389 1446h367l-387 -1446h-369zM377 1528l67 233l535 228l-64 -258z" />
<glyph unicode="&#xce;" horiz-adv-x="641" d="M0 0l389 1446h367l-387 -1446h-369zM250 1526l55 211l354 196l310 -221l-54 -186l-286 168z" />
<glyph unicode="&#xcf;" horiz-adv-x="641" d="M0 0l389 1446h367l-387 -1446h-369zM240 1716q0 59 42 105.5t105.5 46.5t106.5 -43t43 -108.5t-44 -108.5t-106 -43q-63 0 -105 42.5t-42 108.5zM670 1716q0 61 41 106.5t104.5 45.5t106.5 -43t43 -108.5t-44 -108.5t-106 -43q-63 0 -104 42.5t-41 108.5z" />
<glyph unicode="&#xd0;" horiz-adv-x="1536" d="M0 0l174 647h-139l59 213h137l158 586h479q645 0 645 -590q0 -158 -52 -306.5t-153.5 -273t-272.5 -200.5t-386 -76h-649zM440 272h176q168 0 288 86t172 212t52 274q0 88 -25.5 152.5t-59 97t-86 51t-89.5 22.5t-84 4h-102l-84 -311h315l-59 -213h-313z" />
<glyph unicode="&#xd1;" horiz-adv-x="1662" d="M2 0l387 1446h316l501 -852l228 852h348l-389 -1450h-219l-568 954l-246 -950h-358zM754 1589l63 219q80 66 182 66q57 0 119 -27l47 -20q78 -35 140 -35q88 0 190 78l-61 -215q-76 -74 -179 -74q-39 0 -106 23l-59 20q-113 39 -150 39q-86 0 -186 -74z" />
<glyph unicode="&#xd2;" horiz-adv-x="1748" d="M139 623q0 365 247 614.5t628 249.5q342 0 527 -194.5t185 -471.5q0 -150 -54 -297t-157.5 -275t-280.5 -208t-396 -80q-326 0 -512.5 185.5t-186.5 476.5zM512 618q0 -158 89 -266t263 -108q154 0 269.5 91t171 225t55.5 284q0 170 -97.5 271.5t-250.5 101.5 q-152 0 -270.5 -96.5t-174 -231t-55.5 -271.5zM760 1763l57 222l524 -265l-49 -192z" />
<glyph unicode="&#xd3;" horiz-adv-x="1748" d="M139 623q0 365 247 614.5t628 249.5q342 0 527 -194.5t185 -471.5q0 -150 -54 -297t-157.5 -275t-280.5 -208t-396 -80q-326 0 -512.5 185.5t-186.5 476.5zM512 618q0 -158 89 -266t263 -108q154 0 269.5 91t171 225t55.5 284q0 170 -97.5 271.5t-250.5 101.5 q-152 0 -270.5 -96.5t-174 -231t-55.5 -271.5zM831 1528l68 233l535 228l-64 -258z" />
<glyph unicode="&#xd4;" horiz-adv-x="1748" d="M139 623q0 365 247 614.5t628 249.5q342 0 527 -194.5t185 -471.5q0 -150 -54 -297t-157.5 -275t-280.5 -208t-396 -80q-326 0 -512.5 185.5t-186.5 476.5zM512 618q0 -158 89 -266t263 -108q154 0 269.5 91t171 225t55.5 284q0 170 -97.5 271.5t-250.5 101.5 q-152 0 -270.5 -96.5t-174 -231t-55.5 -271.5zM690 1526l55 211l355 196l309 -221l-53 -186l-287 168z" />
<glyph unicode="&#xd5;" horiz-adv-x="1748" d="M139 623q0 365 247 614.5t628 249.5q342 0 527 -194.5t185 -471.5q0 -150 -54 -297t-157.5 -275t-280.5 -208t-396 -80q-326 0 -512.5 185.5t-186.5 476.5zM512 618q0 -158 89 -266t263 -108q154 0 269.5 91t171 225t55.5 284q0 170 -97.5 271.5t-250.5 101.5 q-152 0 -270.5 -96.5t-174 -231t-55.5 -271.5zM717 1589l63 219q80 66 183 66q57 0 118 -27l47 -20q78 -35 140 -35q88 0 190 78l-61 -215q-76 -74 -178 -74q-39 0 -107 23l-59 20q-113 39 -150 39q-86 0 -186 -74z" />
<glyph unicode="&#xd6;" horiz-adv-x="1748" d="M139 623q0 365 247 614.5t628 249.5q342 0 527 -194.5t185 -471.5q0 -150 -54 -297t-157.5 -275t-280.5 -208t-396 -80q-326 0 -512.5 185.5t-186.5 476.5zM512 618q0 -158 89 -266t263 -108q154 0 269.5 91t171 225t55.5 284q0 170 -97.5 271.5t-250.5 101.5 q-152 0 -270.5 -96.5t-174 -231t-55.5 -271.5zM762 1716q0 59 42 105.5t105.5 46.5t106.5 -43t43 -108.5t-44 -108.5t-106 -43q-63 0 -105 42.5t-42 108.5zM1192 1716q0 61 41 106.5t104.5 45.5t106.5 -43t43 -108.5t-44 -108.5t-106 -43q-63 0 -104 42.5t-41 108.5z" />
<glyph unicode="&#xd7;" horiz-adv-x="1482" d="M229 418l322 252l-236 297l265 215l235 -297l322 254l176 -221l-320 -252l240 -306l-266 -215l-240 306l-321 -254z" />
<glyph unicode="&#xd8;" horiz-adv-x="1705" d="M-47 100l256 199q-70 143 -70 307q0 170 61.5 328t170 281.5t274.5 197.5t361 74q322 0 497 -182l238 184l117 -154l-244 -186q70 -147 69 -315q0 -195 -85 -376.5t-234 -307.5q-225 -188 -541 -189q-332 0 -501 180l-250 -192zM506 602q0 -41 6 -72l733 576 q-96 117 -254 117q-88 0 -162.5 -34t-125 -89.5t-75 -93t-42.5 -74.5q-33 -68 -56.5 -164t-23.5 -166zM586 346q27 -43 99.5 -76.5t156.5 -33.5q164 0 284 122q80 82 128.5 200t58.5 186.5t10 117.5q0 27 -6 58z" />
<glyph unicode="&#xd9;" horiz-adv-x="1579" d="M143 442q0 76 45 248l203 756h375l-221 -821q-29 -104 -29 -168q0 -92 61.5 -155.5t178.5 -63.5q238 0 321 307l242 901h375l-256 -957q-41 -150 -91.5 -231.5t-127.5 -146.5q-176 -150 -471 -150q-158 0 -290 47t-223.5 160t-91.5 274zM657 1763l58 222l524 -265 l-49 -192z" />
<glyph unicode="&#xda;" horiz-adv-x="1579" d="M143 442q0 76 45 248l203 756h375l-221 -821q-29 -104 -29 -168q0 -92 61.5 -155.5t178.5 -63.5q238 0 321 307l242 901h375l-256 -957q-41 -150 -91.5 -231.5t-127.5 -146.5q-176 -150 -471 -150q-158 0 -290 47t-223.5 160t-91.5 274zM889 1528l67 233l535 228 l-64 -258z" />
<glyph unicode="&#xdb;" horiz-adv-x="1579" d="M143 442q0 76 45 248l203 756h375l-221 -821q-29 -104 -29 -168q0 -92 61.5 -155.5t178.5 -63.5q238 0 321 307l242 901h375l-256 -957q-41 -150 -91.5 -231.5t-127.5 -146.5q-176 -150 -471 -150q-158 0 -290 47t-223.5 160t-91.5 274zM729 1526l55 211l355 196 l309 -221l-53 -186l-287 168z" />
<glyph unicode="&#xdc;" horiz-adv-x="1579" d="M143 442q0 76 45 248l203 756h375l-221 -821q-29 -104 -29 -168q0 -92 61.5 -155.5t178.5 -63.5q238 0 321 307l242 901h375l-256 -957q-41 -150 -91.5 -231.5t-127.5 -146.5q-176 -150 -471 -150q-158 0 -290 47t-223.5 160t-91.5 274zM721 1716q0 59 42 105.5 t105.5 46.5t106.5 -43t43 -108.5t-44 -108.5t-106 -43q-63 0 -105 42.5t-42 108.5zM1151 1716q0 61 41 106.5t104.5 45.5t106.5 -43t43 -108.5t-44 -108.5t-106 -43q-63 0 -104 42.5t-41 108.5z" />
<glyph unicode="&#xdd;" horiz-adv-x="1409" d="M256 1446h375l162 -610l450 610h422l-776 -944l-133 -502h-367l143 537zM807 1528l67 233l535 228l-63 -258z" />
<glyph unicode="&#xde;" horiz-adv-x="1323" d="M0 0l389 1446h375l-74 -277h164q88 0 169 -19.5t156.5 -60t121 -120.5t45.5 -189q0 -195 -166 -341t-473 -146q-133 0 -246 20l-84 -313h-377zM469 346l231 213h33q115 0 177.5 56.5t62.5 129.5q0 154 -207 154h-148z" />
<glyph unicode="&#xdf;" horiz-adv-x="1280" d="M-18 0l249 987q23 84 39.5 134t53 112.5t90.5 107.5q158 137 417 138q125 0 218.5 -34t142.5 -89.5t72.5 -111.5t23.5 -114q0 -129 -90 -219t-221 -116q94 -35 159.5 -117t65.5 -217q0 -53 -14 -111.5t-52 -127t-95.5 -123t-157 -90.5t-221.5 -36q-109 0 -234 37l59 242 q76 -45 158 -45q96 0 164 79t68 179q0 20 -2.5 40.5t-18.5 58.5t-44 64.5t-87 47t-139 20.5h-31l211 234q82 16 140.5 63t58.5 121q0 66 -47.5 103.5t-114.5 37.5q-51 0 -92 -20.5t-64.5 -45t-45 -71.5t-30 -74.5t-20.5 -78.5l-242 -965h-327z" />
<glyph unicode="&#xe0;" horiz-adv-x="1193" d="M51 330q0 94 41 222t146 249q211 240 538 239q209 0 420 -102l-188 -698q-27 -121 -27 -168q0 -52 6 -72h-301q-12 43 -12 86q0 47 6 90l-186 -182q-57 -16 -127 -17q-94 0 -160 34t-97.5 90.5t-45 111.5t-13.5 117zM377 358q0 -174 170 -174q84 0 145 49l154 568 q-49 18 -101 18q-182 0 -288 -186q-80 -141 -80 -275zM496 1411l82 242l442 -342l-76 -209z" />
<glyph unicode="&#xe1;" horiz-adv-x="1193" d="M51 330q0 94 41 222t146 249q211 240 538 239q209 0 420 -102l-188 -698q-27 -121 -27 -168q0 -52 6 -72h-301q-12 43 -12 86q0 47 6 90l-186 -182q-57 -16 -127 -17q-94 0 -160 34t-97.5 90.5t-45 111.5t-13.5 117zM377 358q0 -174 170 -174q84 0 145 49l154 568 q-49 18 -101 18q-182 0 -288 -186q-80 -141 -80 -275zM651 1106l68 274l457 297l-62 -303z" />
<glyph unicode="&#xe2;" horiz-adv-x="1193" d="M51 330q0 94 41 222t146 249q211 240 538 239q209 0 420 -102l-188 -698q-27 -121 -27 -168q0 -52 6 -72h-301q-12 43 -12 86q0 47 6 90l-186 -182q-57 -16 -127 -17q-94 0 -160 34t-97.5 90.5t-45 111.5t-13.5 117zM377 358q0 -174 170 -174q84 0 145 49l154 568 q-49 18 -101 18q-182 0 -288 -186q-80 -141 -80 -275zM479 1108l58 246l348 258l264 -279l-59 -225l-248 231z" />
<glyph unicode="&#xe3;" horiz-adv-x="1193" d="M51 330q0 94 41 222t146 249q211 240 538 239q209 0 420 -102l-188 -698q-27 -121 -27 -168q0 -52 6 -72h-301q-12 43 -12 86q0 47 6 90l-186 -182q-57 -16 -127 -17q-94 0 -160 34t-97.5 90.5t-45 111.5t-13.5 117zM377 358q0 -174 170 -174q84 0 145 49l154 568 q-49 18 -101 18q-182 0 -288 -186q-80 -141 -80 -275zM473 1194l55 211q88 78 170 78q57 0 123 -33l88 -41q41 -18 97 -18q84 -1 174 69l-56 -211q-76 -76 -159 -75q-57 0 -109 22l-80 35q-78 33 -125 33q-80 0 -178 -70z" />
<glyph unicode="&#xe4;" horiz-adv-x="1193" d="M51 330q0 94 41 222t146 249q211 240 538 239q209 0 420 -102l-188 -698q-27 -121 -27 -168q0 -52 6 -72h-301q-12 43 -12 86q0 47 6 90l-186 -182q-57 -16 -127 -17q-94 0 -160 34t-97.5 90.5t-45 111.5t-13.5 117zM377 358q0 -174 170 -174q84 0 145 49l154 568 q-49 18 -101 18q-182 0 -288 -186q-80 -141 -80 -275zM451 1337q0 59 40.5 103.5t102.5 44.5q63 0 105 -42t42 -106q0 -61 -43 -103t-104.5 -42t-102 42t-40.5 103zM850 1337q0 59 41 103.5t102 44.5q63 0 105.5 -42t42.5 -106q0 -61 -43 -103t-104.5 -42t-102.5 42t-41 103 z" />
<glyph unicode="&#xe5;" horiz-adv-x="1193" d="M51 330q0 94 41 222t146 249q211 240 538 239q209 0 420 -102l-188 -698q-27 -121 -27 -168q0 -52 6 -72h-301q-12 43 -12 86q0 47 6 90l-186 -182q-57 -16 -127 -17q-94 0 -160 34t-97.5 90.5t-45 111.5t-13.5 117zM377 358q0 -174 170 -174q84 0 145 49l154 568 q-49 18 -101 18q-182 0 -288 -186q-80 -141 -80 -275zM627 1356q0 96 65.5 159.5t163.5 63.5t163.5 -63.5t65.5 -159.5q0 -98 -64.5 -162t-164.5 -64t-164.5 63.5t-64.5 162.5zM766 1356q0 -41 25.5 -67.5t64.5 -26.5t64.5 26.5t25.5 67.5t-24.5 66.5t-65.5 25.5 q-39 0 -64.5 -26.5t-25.5 -65.5z" />
<glyph unicode="&#xe6;" horiz-adv-x="1835" d="M55 342q0 195 110.5 363.5t299.5 252.5q186 82 577 82h156l-16 -65q98 66 225 65q184 0 286.5 -109.5t102.5 -291.5q0 -74 -29 -176h-692q0 -86 33 -146.5t84 -86t93 -36t83 -10.5q43 0 83 4.5t68.5 8.5t62.5 13t49.5 13t43 14.5t33.5 12.5l-238 -252q-111 -25 -231 -25 q-342 0 -455 238l-219 -215q-90 -23 -153 -23q-150 0 -253.5 88.5t-103.5 280.5zM383 379q0 -23 5 -47.5t20.5 -62.5t57.5 -62.5t103 -24.5q106 0 199 70q-29 86 -29 149q0 75 39 222l45 172q-29 4 -51 4q-176 0 -291 -148q-98 -125 -98 -272zM1114 629h371q6 29 6 51 q0 51 -17.5 86t-45 48t-47 18.5t-35.5 5.5q-84 0 -144.5 -61.5t-87.5 -147.5z" />
<glyph unicode="&#xe7;" horiz-adv-x="980" d="M72 426q0 240 161 418q182 197 476 196q176 0 331 -65l-65 -246q-109 88 -236 88q-147 0 -240 -111.5t-93 -261.5q0 -100 61 -177t219 -77q104 0 268 54l-237 -250q-78 -16 -121 -19l-49 -77q59 -16 92 -62.5t33 -107.5q0 -135 -126 -199t-310 -68l43 158q166 10 165 111 q0 37 -26.5 61.5t-73.5 26.5l98 166q-109 20 -182 69q-188 123 -188 373z" />
<glyph unicode="&#xe8;" horiz-adv-x="1193" d="M70 451q0 244 176 416.5t454 172.5q80 0 156 -21.5t144.5 -67.5t110.5 -129t42 -191q0 -72 -23 -166h-733q0 -82 58 -160q86 -119 272 -119q149 0 352 68l-239 -254q-102 -27 -232 -27q-311 0 -448 191q-90 123 -90 287zM389 1411l82 242l442 -342l-75 -209zM436 633h416 v31q0 86 -49 128t-119 42q-59 0 -107.5 -24t-77 -62.5t-42 -64t-21.5 -50.5z" />
<glyph unicode="&#xe9;" horiz-adv-x="1193" d="M70 451q0 244 176 416.5t454 172.5q80 0 156 -21.5t144.5 -67.5t110.5 -129t42 -191q0 -72 -23 -166h-733q0 -82 58 -160q86 -119 272 -119q149 0 352 68l-239 -254q-102 -27 -232 -27q-311 0 -448 191q-90 123 -90 287zM436 633h416v31q0 86 -49 128t-119 42 q-59 0 -107.5 -24t-77 -62.5t-42 -64t-21.5 -50.5zM571 1106l68 274l457 297l-62 -303z" />
<glyph unicode="&#xea;" horiz-adv-x="1193" d="M70 451q0 244 176 416.5t454 172.5q80 0 156 -21.5t144.5 -67.5t110.5 -129t42 -191q0 -72 -23 -166h-733q0 -82 58 -160q86 -119 272 -119q149 0 352 68l-239 -254q-102 -27 -232 -27q-311 0 -448 191q-90 123 -90 287zM403 1108l58 246l348 258l264 -279l-59 -225 l-248 231zM436 633h416v31q0 86 -49 128t-119 42q-59 0 -107.5 -24t-77 -62.5t-42 -64t-21.5 -50.5z" />
<glyph unicode="&#xeb;" horiz-adv-x="1193" d="M70 451q0 244 176 416.5t454 172.5q80 0 156 -21.5t144.5 -67.5t110.5 -129t42 -191q0 -72 -23 -166h-733q0 -82 58 -160q86 -119 272 -119q149 0 352 68l-239 -254q-102 -27 -232 -27q-311 0 -448 191q-90 123 -90 287zM389 1337q0 59 41 103.5t102 44.5q63 0 105.5 -42 t42.5 -106q0 -61 -43 -103t-104.5 -42t-102.5 42t-41 103zM436 633h416v31q0 86 -49 128t-119 42q-59 0 -107.5 -24t-77 -62.5t-42 -64t-21.5 -50.5zM788 1337q0 59 41 103.5t103 44.5q63 0 105 -42t42 -106q0 -61 -43 -103t-104.5 -42t-102.5 42t-41 103z" />
<glyph unicode="&#xec;" horiz-adv-x="555" d="M-20 0l272 1012h326l-273 -1012h-325zM166 1411l82 242l442 -342l-76 -209z" />
<glyph unicode="&#xed;" horiz-adv-x="555" d="M-20 0l272 1012h326l-273 -1012h-325zM246 1106l67 274l457 297l-61 -303z" />
<glyph unicode="&#xee;" horiz-adv-x="555" d="M-20 0l272 1012h326l-273 -1012h-325zM117 1108l57 246l348 258l264 -279l-59 -225l-248 231z" />
<glyph unicode="&#xef;" horiz-adv-x="555" d="M-20 0l272 1012h326l-273 -1012h-325zM94 1337q0 59 41 103.5t103 44.5q63 0 105 -42t42 -106q0 -61 -43 -103t-104.5 -42t-102.5 42t-41 103zM494 1337q0 59 40.5 103.5t102.5 44.5q63 0 105 -42t42 -106q0 -61 -43 -103t-104.5 -42t-102 42t-40.5 103z" />
<glyph unicode="&#xf0;" d="M72 430q0 254 174 431t401 177q121 0 223 -75q-14 86 -65 196l-305 -74l-51 140l280 67q-41 61 -88 121l297 86q59 -63 100 -133l156 37l53 -139l-135 -33q90 -207 90 -432q0 -104 -17.5 -210t-62.5 -219.5t-112.5 -199.5t-178 -141.5t-249.5 -55.5q-227 0 -368.5 116 t-141.5 341zM395 397q0 -111 49.5 -159t122.5 -48q70 0 126.5 46.5t87 117t47 140t16.5 127.5q0 106 -50.5 154t-117.5 48q-76 0 -134.5 -50t-88 -122.5t-44 -138.5t-14.5 -115z" />
<glyph unicode="&#xf1;" d="M-18 0l272 1012h324l-54 -201l211 203q94 27 174 26q121 0 200 -63.5t79 -190.5q0 -35 -29 -143l-172 -643h-321l141 526q31 119 31 152q0 23 -5.5 46.5t-41 54t-99.5 30.5q-92 0 -184 -57l-201 -752h-325zM449 1194l55 211q88 78 170 78q57 0 123 -33l88 -41 q41 -18 96 -18q84 -1 174 69l-55 -211q-76 -76 -160 -75q-57 0 -109 22l-79 35q-78 33 -125 33q-80 0 -178 -70z" />
<glyph unicode="&#xf2;" d="M72 432q0 106 40 213t113.5 196t192.5 144t260 55q131 0 231.5 -44t153.5 -115.5t78.5 -148.5t25.5 -157q0 -88 -32.5 -186t-98 -194.5t-188.5 -159t-281 -62.5q-221 0 -358 121t-137 338zM395 395q0 -25 4 -49t18.5 -65t52.5 -66t95 -25q123 0 201 136t78 290 q0 111 -51.5 159t-118.5 48q-90 0 -157.5 -78.5t-94.5 -172t-27 -177.5zM399 1411l82 242l443 -342l-76 -209z" />
<glyph unicode="&#xf3;" d="M72 432q0 106 40 213t113.5 196t192.5 144t260 55q131 0 231.5 -44t153.5 -115.5t78.5 -148.5t25.5 -157q0 -88 -32.5 -186t-98 -194.5t-188.5 -159t-281 -62.5q-221 0 -358 121t-137 338zM395 395q0 -25 4 -49t18.5 -65t52.5 -66t95 -25q123 0 201 136t78 290 q0 111 -51.5 159t-118.5 48q-90 0 -157.5 -78.5t-94.5 -172t-27 -177.5zM532 1106l68 274l457 297l-62 -303z" />
<glyph unicode="&#xf4;" d="M72 432q0 106 40 213t113.5 196t192.5 144t260 55q131 0 231.5 -44t153.5 -115.5t78.5 -148.5t25.5 -157q0 -88 -32.5 -186t-98 -194.5t-188.5 -159t-281 -62.5q-221 0 -358 121t-137 338zM395 395q0 -25 4 -49t18.5 -65t52.5 -66t95 -25q123 0 201 136t78 290 q0 111 -51.5 159t-118.5 48q-90 0 -157.5 -78.5t-94.5 -172t-27 -177.5zM401 1108l58 246l348 258l264 -279l-59 -225l-248 231z" />
<glyph unicode="&#xf5;" d="M72 432q0 106 40 213t113.5 196t192.5 144t260 55q131 0 231.5 -44t153.5 -115.5t78.5 -148.5t25.5 -157q0 -88 -32.5 -186t-98 -194.5t-188.5 -159t-281 -62.5q-221 0 -358 121t-137 338zM395 395q0 -25 4 -49t18.5 -65t52.5 -66t95 -25q123 0 201 136t78 290 q0 111 -51.5 159t-118.5 48q-90 0 -157.5 -78.5t-94.5 -172t-27 -177.5zM408 1194l55 211q88 78 170 78q57 0 123 -33l88 -41q41 -18 96 -18q84 -1 174 69l-55 -211q-76 -76 -160 -75q-57 0 -108 22l-80 35q-78 33 -125 33q-80 0 -178 -70z" />
<glyph unicode="&#xf6;" d="M72 432q0 106 40 213t113.5 196t192.5 144t260 55q131 0 231.5 -44t153.5 -115.5t78.5 -148.5t25.5 -157q0 -88 -32.5 -186t-98 -194.5t-188.5 -159t-281 -62.5q-221 0 -358 121t-137 338zM395 395q0 -25 4 -49t18.5 -65t52.5 -66t95 -25q123 0 201 136t78 290 q0 111 -51.5 159t-118.5 48q-90 0 -157.5 -78.5t-94.5 -172t-27 -177.5zM459 1337q0 59 41 103.5t102 44.5q63 0 105.5 -42t42.5 -106q0 -61 -43 -103t-104.5 -42t-102.5 42t-41 103zM858 1337q0 59 41 103.5t102 44.5q63 0 105.5 -42t42.5 -106q0 -61 -43 -103t-104.5 -42 t-102.5 42t-41 103z" />
<glyph unicode="&#xf7;" horiz-adv-x="1488" d="M170 518l76 289h1157l-76 -289h-1157zM487 250q0 78 52.5 131t130.5 53q80 0 134 -54t54 -134q0 -76 -54 -129.5t-132 -53.5t-131.5 54.5t-53.5 132.5zM709 1075q0 78 53 131.5t131 53.5t131 -53.5t53 -131.5q0 -80 -52 -133t-132 -53q-78 0 -131 54t-53 132z" />
<glyph unicode="&#xf8;" d="M-45 106l160 123q-43 104 -43 205q0 209 125 377q66 88 182.5 158.5t294.5 70.5q203 0 352 -125l154 117l96 -127l-154 -119q45 -104 45 -206q0 -201 -114 -363q-178 -244 -498 -244q-229 0 -344 125l-160 -118zM383 432l442 336q-63 92 -151 92q-131 0 -209 -136 t-82 -292zM418 252q49 -92 153 -92q147 0 226 186q51 127 55 238z" />
<glyph unicode="&#xf9;" d="M51 227q0 63 27 162l166 623h329l-149 -555q-25 -98 -25 -129q0 -57 39 -92t97 -35q86 0 186 55l203 756h327l-272 -1012h-330l56 199l-205 -203q-82 -23 -158 -23q-115 0 -203 60.5t-88 193.5zM432 1411l82 242l442 -342l-75 -209z" />
<glyph unicode="&#xfa;" d="M51 227q0 63 27 162l166 623h329l-149 -555q-25 -98 -25 -129q0 -57 39 -92t97 -35q86 0 186 55l203 756h327l-272 -1012h-330l56 199l-205 -203q-82 -23 -158 -23q-115 0 -203 60.5t-88 193.5zM641 1106l68 274l456 297l-61 -303z" />
<glyph unicode="&#xfb;" d="M51 227q0 63 27 162l166 623h329l-149 -555q-25 -98 -25 -129q0 -57 39 -92t97 -35q86 0 186 55l203 756h327l-272 -1012h-330l56 199l-205 -203q-82 -23 -158 -23q-115 0 -203 60.5t-88 193.5zM455 1108l57 246l348 258l264 -279l-59 -225l-248 231z" />
<glyph unicode="&#xfc;" d="M51 227q0 63 27 162l166 623h329l-149 -555q-25 -98 -25 -129q0 -57 39 -92t97 -35q86 0 186 55l203 756h327l-272 -1012h-330l56 199l-205 -203q-82 -23 -158 -23q-115 0 -203 60.5t-88 193.5zM449 1337q0 59 40.5 103.5t102.5 44.5q63 0 105 -42t42 -106 q0 -61 -43 -103t-104.5 -42t-102 42t-40.5 103zM848 1337q0 59 41 103.5t102 44.5q63 0 105.5 -42t42.5 -106q0 -61 -43 -103t-104.5 -42t-102.5 42t-41 103z" />
<glyph unicode="&#xfd;" horiz-adv-x="1150" d="M-193 -389l140 219q41 -8 76 -8q150 0 213 139l20 45l-117 1006h332l45 -684l391 684h379l-766 -1131q-53 -78 -94 -126t-100.5 -92t-134 -63.5t-173.5 -19.5q-90 0 -211 31zM602 1106l68 274l456 297l-61 -303z" />
<glyph unicode="&#xfe;" horiz-adv-x="1193" d="M-131 -422l500 1868h321l-168 -627l193 195q72 23 116 22q156 0 238 -102.5t82 -249.5q0 -117 -42 -236.5t-121 -228t-214 -177.5t-301 -69q-76 0 -172 21l-111 -416h-321zM362 215q49 -18 111 -18q111 0 195 84t117.5 180t33.5 174q0 98 -46 142t-111 44q-74 0 -152 -51 z" />
<glyph unicode="&#xff;" horiz-adv-x="1150" d="M-193 -389l140 219q41 -8 76 -8q150 0 213 139l20 45l-117 1006h332l45 -684l391 684h379l-766 -1131q-53 -78 -94 -126t-100.5 -92t-134 -63.5t-173.5 -19.5q-90 0 -211 31zM383 1337q0 59 41 103.5t102 44.5q63 0 105.5 -42t42.5 -106q0 -61 -43 -103t-104.5 -42 t-102.5 42t-41 103zM782 1337q0 59 41 103.5t103 44.5q63 0 105 -42t42 -106q0 -61 -43 -103t-104.5 -42t-102.5 42t-41 103z" />
<glyph unicode="&#x152;" horiz-adv-x="2174" d="M137 621q0 293 187 532q43 55 96 104.5t139 104.5t207 89t260 34q90 0 336 -39h934l-76 -281h-573l-76 -291h493l-73 -274h-494l-86 -319h709l-262 -281h-771q-158 -37 -266 -37q-281 0 -465 154q-219 186 -219 504zM512 618q0 -61 17.5 -122.5t55.5 -120t109.5 -95 t165.5 -36.5q93 0 189 41l233 872q-129 57 -248 57q-172 0 -309 -114q-100 -86 -156.5 -216t-56.5 -266z" />
<glyph unicode="&#x153;" horiz-adv-x="1921" d="M74 428q0 264 172 438t418 174q147 0 240 -47t128 -102q150 150 393 149q197 0 320 -100q135 -113 135 -311q0 -59 -22 -164h-709v-16q0 -45 12.5 -85t44 -83t99 -69t163.5 -26q74 0 139.5 13.5t121 32t67.5 20.5l-240 -256q-88 -23 -194 -23q-170 0 -258 38t-156 116 q-43 -41 -80 -68.5t-120.5 -56.5t-186.5 -29q-217 0 -352 119t-135 336zM395 389q0 -109 52.5 -154t123.5 -45q92 0 158 83t91.5 177.5t25.5 172.5q0 61 -20.5 105t-51.5 61.5t-55.5 24.5t-44.5 7q-92 0 -160 -79.5t-93.5 -174t-25.5 -178.5zM1188 633h387q4 12 4 47 q0 76 -44 116t-112 40q-163 0 -235 -203z" />
<glyph unicode="&#x178;" horiz-adv-x="1409" d="M256 1446h375l162 -610l450 610h422l-776 -944l-133 -502h-367l143 537zM602 1716q0 59 42 105.5t105.5 46.5t106.5 -43t43 -108.5t-44 -108.5t-105 -43q-63 0 -105.5 42.5t-42.5 108.5zM1032 1716q0 61 41 106.5t104.5 45.5t106.5 -43t43 -108.5t-44 -108.5t-105 -43 q-63 0 -104.5 42.5t-41.5 108.5z" />
<glyph unicode="&#x2c6;" horiz-adv-x="555" d="M-57 1108l57 246l348 258l264 -279l-59 -225l-248 231z" />
<glyph unicode="&#x2dc;" horiz-adv-x="555" d="M-76 1194l56 211q88 78 170 78q57 0 122 -33l88 -41q41 -18 97 -18q84 -1 174 69l-56 -211q-76 -76 -159 -75q-57 0 -109 22l-80 35q-78 33 -125 33q-80 0 -178 -70z" />
<glyph unicode="&#x2000;" horiz-adv-x="994" />
<glyph unicode="&#x2001;" horiz-adv-x="1989" />
<glyph unicode="&#x2002;" horiz-adv-x="994" />
<glyph unicode="&#x2003;" horiz-adv-x="1989" />
<glyph unicode="&#x2004;" horiz-adv-x="663" />
<glyph unicode="&#x2005;" horiz-adv-x="497" />
<glyph unicode="&#x2006;" horiz-adv-x="331" />
<glyph unicode="&#x2007;" horiz-adv-x="331" />
<glyph unicode="&#x2008;" horiz-adv-x="248" />
<glyph unicode="&#x2009;" horiz-adv-x="397" />
<glyph unicode="&#x200a;" horiz-adv-x="110" />
<glyph unicode="&#x2010;" horiz-adv-x="894" d="M27 424l225 227h637l-227 -227h-635z" />
<glyph unicode="&#x2011;" horiz-adv-x="894" d="M27 424l225 227h637l-227 -227h-635z" />
<glyph unicode="&#x2012;" horiz-adv-x="894" d="M27 424l225 227h637l-227 -227h-635z" />
<glyph unicode="&#x2013;" horiz-adv-x="1269" d="M27 424l221 227h1014l-224 -227h-1011z" />
<glyph unicode="&#x2014;" horiz-adv-x="1679" d="M27 424l221 227h1423l-223 -227h-1421z" />
<glyph unicode="&#x2018;" horiz-adv-x="512" d="M156 944l379 502h172l-275 -502h-276z" />
<glyph unicode="&#x2019;" horiz-adv-x="512" d="M182 944l275 502h276l-379 -502h-172z" />
<glyph unicode="&#x201a;" horiz-adv-x="512" d="M-135 -215l276 504h275l-377 -504h-174z" />
<glyph unicode="&#x201c;" horiz-adv-x="937" d="M166 944l379 502h174l-277 -502h-276zM580 944l378 502h172l-276 -502h-274z" />
<glyph unicode="&#x201d;" horiz-adv-x="937" d="M174 944l275 502h276l-379 -502h-172zM586 944l276 502h275l-377 -502h-174z" />
<glyph unicode="&#x201e;" horiz-adv-x="937" d="M-139 -215l276 504h275l-379 -504h-172zM272 -215l277 504h276l-379 -504h-174z" />
<glyph unicode="&#x2022;" horiz-adv-x="681" d="M92 719q0 125 88 212t215 87q123 0 208 -85t85 -208q0 -133 -83 -218t-210 -85t-215 86t-88 211z" />
<glyph unicode="&#x2026;" horiz-adv-x="2048" d="M82 129q0 63 43 107.5t106 44.5q66 0 109 -44t43 -110t-43 -109t-106.5 -43t-107.5 44t-44 110zM766 129q0 63 43 107.5t106 44.5q66 0 109 -44t43 -110t-44 -109t-107.5 -43t-106.5 44t-43 110zM1448 129q0 63 43 107.5t106 44.5q66 0 109 -44t43 -110t-43 -109 t-109 -43q-63 0 -106 44t-43 110z" />
<glyph unicode="&#x202f;" horiz-adv-x="397" />
<glyph unicode="&#x2039;" horiz-adv-x="555" d="M55 592l240 299h287l-254 -316l151 -327h-264z" />
<glyph unicode="&#x203a;" horiz-adv-x="555" d="M-4 248l274 340l-137 303h266l146 -318l-262 -325h-287z" />
<glyph unicode="&#x205f;" horiz-adv-x="497" />
<glyph unicode="&#x20ac;" horiz-adv-x="1445" d="M121 469l49 180h143q6 63 23 125h-146l50 180h147q190 467 756 467q201 1 334 -69l-70 -260q-121 70 -277 69q-270 0 -366 -207h461l-49 -180h-482q-16 -45 -26 -125h479l-51 -180h-434q16 -236 354 -236q190 0 377 89l-234 -312q-127 -33 -266 -33q-262 0 -423 128 t-165 364h-184z" />
<glyph unicode="&#x2122;" horiz-adv-x="1515" d="M258 1292l41 154h559l-41 -154h-184l-141 -526h-191l139 526h-182zM690 766l260 680h197l45 -313l209 313h198l-88 -680h-180l58 422l-277 -422h-16l-68 420l-151 -420h-187z" />
<glyph unicode="&#xe000;" horiz-adv-x="1013" d="M0 0v1014h1014v-1014h-1014z" />
<glyph unicode="&#xfb01;" d="M12 0l209 774h-143l184 238h23l28 106q96 356 473 357q115 0 197 -27l-63 -236q-57 29 -117 29q-76 0 -117 -47t-65 -137l-13 -45h205l-63 -238h-205l-207 -774h-326zM662 0l272 1012h326l-273 -1012h-325zM1006 1329.5q0 59.5 49 106.5t125 47q70 0 118 -42t48 -108 q0 -61 -46.5 -106t-121.5 -45q-74 0 -123 44t-49 103.5z" />
<glyph unicode="&#xfb02;" d="M12 0l209 774h-143l184 238h23l28 106q96 356 473 357q115 0 197 -27l-63 -236q-57 29 -117 29q-76 0 -117 -47t-65 -137l-13 -45h205l-63 -238h-205l-207 -774h-326zM662 0l387 1446h327l-385 -1446h-329z" />
</font>
</defs>
</svg>
