<?xml version="1.0" standalone="no"?>
<!DOCTYPE svg PUBLIC "-//W3C//DTD SVG 1.1//EN" "http://www.w3.org/Graphics/SVG/1.1/DTD/svg11.dtd" >
<svg xmlns="http://www.w3.org/2000/svg">
<metadata></metadata>
<defs>
<font id="delta_jaegerlightitalic" horiz-adv-x="1024" >
<font-face units-per-em="2048" ascent="1638" descent="-410" />
<missing-glyph horiz-adv-x="555" />
<glyph horiz-adv-x="2048" />
<glyph horiz-adv-x="2048" />
<glyph unicode="&#xd;" horiz-adv-x="681" />
<glyph unicode=" "  horiz-adv-x="555" />
<glyph unicode="&#x09;" horiz-adv-x="555" />
<glyph unicode="&#xa0;" horiz-adv-x="555" />
<glyph unicode="!" horiz-adv-x="512" d="M41 94q0 45 32.5 76t73.5 31q43 0 76 -31t33 -76q0 -43 -30.5 -74.5t-78.5 -31.5q-45 0 -75.5 30.5t-30.5 75.5zM152 393l260 1053h190l-283 -979z" />
<glyph unicode="&#x22;" horiz-adv-x="714" d="M258 920l104 602h179l-217 -602h-66zM606 920l105 602h178l-217 -602h-66z" />
<glyph unicode="#" horiz-adv-x="1368" d="M102 512l31 111h342l66 227h-346l32 117h346l140 479h129l-144 -479h205l137 479h123l-141 -479h354l-33 -117h-354l-65 -227h360l-31 -111h-362l-150 -512h-123l152 512h-207l-151 -512h-125l153 512h-338zM596 623h207l65 227h-204z" />
<glyph unicode="$" horiz-adv-x="983" d="M-20 70l45 157q141 -92 335 -92q135 0 232.5 75t97.5 196q0 55 -29.5 104t-59.5 75.5t-101 84.5l-94 75q-129 102 -130 265q0 147 113 259.5t295 127.5l64 225h137l-66 -227q127 -10 248 -64l-41 -149q-135 88 -264 88q-123 0 -213 -63.5t-90 -184.5q0 -49 25.5 -95 t52 -72t75.5 -67l97 -75q164 -127 163 -307q0 -174 -137 -284t-284 -116l-66 -235h-137l65 231q-203 18 -333 68z" />
<glyph unicode="%" horiz-adv-x="1802" d="M133 762q0 225 121 438q123 215 344 215q248 0 248 -287q0 -115 -43 -268t-133 -262q-104 -121 -281 -121q-131 0 -193.5 82t-62.5 203zM274 750q0 -160 132 -160q115 0 180 115q61 115 90 246.5t29 197.5q0 154 -121 154t-205 -160q-104 -201 -105 -393zM444 0l869 1399 h155l-870 -1399h-154zM1055 268q0 225 121 439q123 215 344 215q248 0 247 -287q0 -115 -43 -268.5t-133 -262.5q-104 -121 -280 -120q-131 0 -193.5 81.5t-62.5 202.5zM1196 256q0 -160 131 -160q115 0 180 115q61 115 90 246.5t29 197.5q0 154 -121 154t-205 -160 q-104 -201 -104 -393z" />
<glyph unicode="&#x26;" horiz-adv-x="1236" d="M61 369q0 49 14.5 101t50.5 119.5t118 129t200 100.5q-35 59 -52 93t-31.5 85.5t-14.5 104.5q0 86 37 160q39 76 130 141t235 65q141 0 244.5 -85t103.5 -224t-107 -246q-92 -92 -291 -157l537 -684l-133 -105l-162 203l-158 -164q-119 -39 -243 -39q-27 0 -54.5 2 t-81 12.5t-99.5 30t-97 58.5t-86 92q-59 92 -60 207zM248 377q0 -23 5 -49.5t24.5 -68.5t52 -74.5t95 -56.5t146.5 -24q74 0 175.5 25t173.5 70l-392 501q-37 -10 -78.5 -30.5t-91 -57.5t-80 -98t-30.5 -137zM520 1112q0 -115 88 -244q313 78 316 287q0 84 -55.5 136 t-139.5 52q-76 0 -142.5 -63t-66.5 -168z" />
<glyph unicode="'" horiz-adv-x="364" d="M258 920l104 602h179l-217 -602h-66z" />
<glyph unicode="(" horiz-adv-x="555" d="M90 319q0 348 161 673t458 573h161l-22 -23q-145 -143 -214 -226t-140 -202q-233 -391 -234 -850q0 -158 26 -280.5t87 -282.5h-137q-145 285 -146 618z" />
<glyph unicode=")" horiz-adv-x="555" d="M-260 -299l24 25q154 154 221.5 233.5t135.5 192.5q231 397 231 852q0 150 -24 274.5t-90 288.5h137q145 -283 145 -619q0 -512 -323 -940q-145 -190 -295 -307h-162z" />
<glyph unicode="*" horiz-adv-x="724" d="M231 989l197 156l-190 133l63 90l199 -139l63 233l105 -28l-60 -232l238 27l10 -109l-248 -30l90 -228l-112 -41l-88 228l-197 -148z" />
<glyph unicode="+" horiz-adv-x="1482" d="M199 537l41 153h462l127 471h170l-125 -471h465l-41 -153h-464l-127 -474h-172l127 474h-463z" />
<glyph unicode="," horiz-adv-x="425" d="M-231 -279l278 433h201l-348 -433h-131z" />
<glyph unicode="-" horiz-adv-x="681" d="M-2 471l133 123h557l-129 -123h-561z" />
<glyph unicode="." horiz-adv-x="425" d="M0 96q0 43 30.5 74t76 31t77 -31t31.5 -74q0 -45 -31.5 -76.5t-77 -31.5t-76 30.5t-30.5 77.5z" />
<glyph unicode="/" horiz-adv-x="724" d="M-123 0l905 1446h174l-907 -1446h-172z" />
<glyph unicode="0" horiz-adv-x="1150" d="M84 408q0 260 127 546q74 172 175 280.5t193.5 145.5t192.5 37q106 0 184 -40t116 -91t60.5 -121.5t26.5 -110.5t4 -77q-4 -209 -94 -457q-109 -293 -257 -415.5t-337 -122.5q-35 0 -71.5 5t-98 29.5t-106.5 66.5t-80 127t-35 198zM264 379q0 -82 23.5 -140.5t62.5 -86 t76 -39t76 -11.5q111 0 214 105.5t199 400.5q74 230 74 408q0 47 -9 90t-31.5 88t-70 72.5t-114.5 27.5q-221 0 -373 -356q-51 -119 -89 -279.5t-38 -279.5z" />
<glyph unicode="1" horiz-adv-x="1150" d="M387 0l315 1159l-256 -131l48 166l452 238l-389 -1432h-170z" />
<glyph unicode="2" horiz-adv-x="1150" d="M-8 0l35 129l626 518q53 45 86 76t83 87t76 118.5t26 126.5q0 115 -75 173t-169 58q-160 0 -375 -203l55 209q162 125 349 125q172 0 284.5 -96t112.5 -254q0 -94 -47 -190q-27 -55 -61.5 -104.5t-89 -99.5t-85 -76t-98.5 -79l-487 -389h706l-127 -129h-825z" />
<glyph unicode="3" horiz-adv-x="1150" d="M2 53l37 146q180 -90 334 -90q100 0 177 33.5t117 86t58 103.5t18 98q0 82 -51 150q-39 51 -102.5 78.5t-112.5 32.5t-129 7l127 125q16 -4 55 -4q164 0 249 87t85 177q0 94 -63.5 148.5t-151.5 54.5q-94 0 -191.5 -61.5t-166.5 -147.5l57 217q166 123 328 123 q174 0 267 -99t93 -222q0 -88 -43 -160t-105.5 -113t-107.5 -61.5t-78 -26.5q223 -100 224 -309q0 -49 -14.5 -103.5t-53.5 -117t-98.5 -111.5t-158.5 -80.5t-224 -31.5q-119 0 -221.5 21t-153.5 50z" />
<glyph unicode="4" horiz-adv-x="1150" d="M14 369l885 1030h215l-242 -910h199l-123 -120h-108l-99 -369h-166l97 369h-658zM299 489h406l210 740z" />
<glyph unicode="5" horiz-adv-x="1150" d="M16 63l41 150q172 -102 338 -102q137 0 244 69q72 49 116 125t44 162q0 98 -56 172q-109 143 -401 143q-16 0 -47 -1t-39 -1l264 619h668l-37 -127h-512l-162 -373q129 -8 221 -41q43 -14 84 -38.5t90.5 -68.5t79 -117t29.5 -165q0 -201 -152 -336q-166 -152 -426 -151 q-201 -1 -387 81z" />
<glyph unicode="6" horiz-adv-x="1150" d="M158 420q0 174 80 350q170 383 647 629h327q-197 -74 -344 -161t-272 -216q-20 -23 -37.5 -41t-32 -36.5t-23.5 -31t-21.5 -32t-17.5 -26.5t-18.5 -29.5t-17.5 -30.5q131 72 258 71q162 0 261.5 -104.5t99.5 -267.5q0 -57 -14.5 -121t-50.5 -134.5t-89 -127t-140 -93 t-194 -36.5q-190 0 -295.5 118.5t-105.5 319.5zM336 383q0 -133 66.5 -209t166.5 -76q131 0 214 118t83 271q0 131 -68.5 192.5t-164.5 61.5q-127 0 -212 -99t-85 -259z" />
<glyph unicode="7" horiz-adv-x="1150" d="M166 0l792 1272h-710l37 127h940l-875 -1399h-184z" />
<glyph unicode="8" horiz-adv-x="1150" d="M94 354q0 152 96.5 265.5t255.5 146.5q-147 92 -147 264q0 164 132 275.5t321 111.5q102 0 180 -33.5t118 -87t58 -106.5t18 -107q0 -121 -80.5 -219t-199.5 -137q172 -123 172 -301q0 -174 -136.5 -309t-361.5 -135q-211 0 -318.5 112.5t-107.5 259.5zM274 352 q0 -127 76 -189.5t178 -62.5q104 0 180 64.5t106 140.5t30 144q0 100 -67.5 166.5t-180.5 66.5q-143 0 -232.5 -97.5t-89.5 -232.5zM473 999q0 -63 24.5 -106t62.5 -61.5t66.5 -24.5t55.5 -6q109 0 191.5 76.5t82.5 199.5q0 98 -59 155.5t-154 57.5q-121 0 -195.5 -86 t-74.5 -205z" />
<glyph unicode="9" horiz-adv-x="1150" d="M47 0q195 74 341.5 158t268.5 211q127 131 177 235q-137 -72 -256 -72q-166 0 -264.5 103.5t-98.5 269.5q0 63 15.5 130t53.5 136.5t92 123t139 88t187 34.5q195 0 298.5 -124t103.5 -314q0 -324 -250 -617q-180 -210 -477 -362h-330zM395 913q0 -72 22.5 -124 t51.5 -76.5t67.5 -37.5t57 -15.5t35.5 -2.5q127 0 212 99.5t85 259.5q0 133 -66.5 208.5t-167.5 75.5q-129 0 -213 -118.5t-84 -268.5z" />
<glyph unicode=":" horiz-adv-x="512" d="M63 94q0 43 31 75t76 32t77 -31t32 -74q0 -47 -31 -77.5t-78 -30.5q-43 0 -75 30.5t-32 75.5zM276 918q0 43 31 74.5t76 31.5t77 -30.5t32 -73.5q0 -47 -31 -78t-78 -31q-43 0 -75 30.5t-32 76.5z" />
<glyph unicode=";" horiz-adv-x="512" d="M-172 -279l278 433h201l-348 -433h-131zM301 918q0 43 30.5 74.5t76 31.5t77 -30.5t31.5 -73.5q0 -47 -30.5 -78t-77.5 -31q-43 0 -75 30.5t-32 76.5z" />
<glyph unicode="&#x3c;" horiz-adv-x="1482" d="M233 526l48 176l1081 482l-49 -185l-901 -393l690 -393l-43 -166z" />
<glyph unicode="=" horiz-adv-x="1482" d="M154 338l39 151h1077l-41 -151h-1075zM254 717l41 153h1077l-43 -153h-1075z" />
<glyph unicode="&#x3e;" horiz-adv-x="1482" d="M164 49l49 184l901 394l-690 393l45 166l825 -479l-47 -177z" />
<glyph unicode="?" horiz-adv-x="854" d="M125 94q0 45 32.5 76t73.5 31q43 0 76 -31t33 -76q0 -43 -30.5 -74.5t-78.5 -31.5q-45 0 -75.5 30.5t-30.5 75.5zM221 399l119 447q18 -2 55 -2q117 0 202 31.5t123 81t53 91.5t15 78q0 92 -69.5 150.5t-169.5 58.5q-115 0 -283 -73l51 178q133 41 263 41 q188 0 292.5 -106.5t104.5 -246.5q0 -190 -150.5 -302.5t-347.5 -118.5l-59 -215z" />
<glyph unicode="@" horiz-adv-x="1818" d="M156 496q0 408 273 686t675 278q295 0 474 -159.5t179 -426.5q0 -184 -81 -355t-205.5 -272.5t-249.5 -101.5q-152 0 -160 154l-135 -135q-51 -8 -84 -8q-143 0 -223 75.5t-80 212.5q0 102 44 217t119 205q166 201 439 201q160 0 289 -61l-173 -521q-37 -115 -36 -163 q0 -59 59 -60q49 0 111 60q106 98 167.5 242.5t61.5 293.5q0 231 -141.5 363.5t-391.5 132.5q-334 0 -557 -243t-223 -603q0 -299 171 -471t468 -172q213 0 400 82q114 51 270 166l-74 -189q-123 -76 -239 -117q-174 -59 -367 -59q-354 0 -567 204t-213 544zM705 457 q0 -182 172 -183q84 0 188 70l192 580q-66 25 -135 24q-229 0 -352 -239q-66 -131 -65 -252z" />
<glyph unicode="A" horiz-adv-x="1323" d="M-143 0l970 1446h195l178 -1446h-178l-51 418h-639l-269 -418h-206zM420 557h536l-77 709z" />
<glyph unicode="B" horiz-adv-x="1150" d="M6 0l389 1446h342q43 0 89 -6t104.5 -27.5t102.5 -54.5t75 -94.5t31 -139.5q0 -86 -52 -176q-96 -168 -370 -194q37 -6 79 -21.5t95 -49.5t88 -99.5t35 -151.5q0 -121 -78 -231.5t-246 -165.5q-74 -25 -131 -30t-178 -5h-375zM217 135h236q162 0 271.5 79t109.5 226 q0 133 -105 203q-74 49 -233 49h-129zM371 700l153 134h17q166 0 264 49q68 33 109.5 94t41.5 135q0 109 -77 154q-70 41 -211 41h-133z" />
<glyph unicode="C" horiz-adv-x="1366" d="M137 616q0 324 225 570q268 295 723 295q190 0 404 -64l-43 -162q-176 88 -385 88q-158 0 -287 -53q-199 -82 -321.5 -258t-122.5 -387q0 -270 174 -418q147 -125 391 -125q199 0 422 88l-193 -190q-113 -35 -241 -35q-315 0 -502 144q-117 88 -180.5 223t-63.5 284z" />
<glyph unicode="D" horiz-adv-x="1449" d="M8 0l389 1446h402q307 0 446 -119q184 -160 185 -469q0 -111 -29 -227q-12 -49 -30.5 -98.5t-59.5 -123t-93.5 -135t-139.5 -123t-191 -98.5q-152 -53 -395 -53h-484zM225 137h287q139 0 256 29t227 123q117 98 183.5 252.5t66.5 310.5q0 193 -94 313q-111 141 -356 142 h-254z" />
<glyph unicode="E" horiz-adv-x="1067" d="M2 0l387 1446h805l-37 -137h-622l-127 -480h542l-39 -137h-540l-148 -551h738l-140 -141h-819z" />
<glyph unicode="F" horiz-adv-x="937" d="M8 0l391 1446h803l-37 -137h-622l-131 -482h532l-39 -143h-530l-185 -684h-182z" />
<glyph unicode="G" horiz-adv-x="1536" d="M139 629q0 293 199 530q270 322 749 322q225 0 484 -88l-43 -162q-233 117 -449 117q-279 0 -491 -170q-121 -98 -189.5 -240.5t-68.5 -298.5q0 -201 114 -346q152 -195 449 -195q141 0 266 58l109 405h-404l135 137h482l-168 -637q-217 -94 -461 -94q-317 0 -508 172 q-205 190 -205 490z" />
<glyph unicode="H" horiz-adv-x="1449" d="M4 0l395 1446h179l-164 -608h796l164 608h176l-385 -1446h-180l184 696h-794l-185 -696h-186z" />
<glyph unicode="I" horiz-adv-x="468" d="M6 0l387 1446h182l-387 -1446h-182z" />
<glyph unicode="J" horiz-adv-x="641" d="M-127 10l119 125q43 -18 74 -18q53 0 94 26.5t67.5 78.5t40 89t27.5 95l278 1040h183l-287 -1071q-18 -70 -31.5 -110t-38 -91t-62.5 -88t-89 -63q-94 -47 -195 -48q-102 0 -180 35z" />
<glyph unicode="K" horiz-adv-x="1193" d="M6 0l393 1446h179l-187 -666l744 666h215l-768 -686l514 -760h-205l-506 750l-201 -750h-178z" />
<glyph unicode="L" d="M4 0l389 1446h185l-355 -1309h707l-131 -137h-795z" />
<glyph unicode="M" horiz-adv-x="1792" d="M-80 0l561 1446h193l176 -1075l760 1075h200l-221 -1446h-178l201 1206l-858 -1206h-11l-198 1202l-443 -1202h-182z" />
<glyph unicode="N" horiz-adv-x="1536" d="M8 0l391 1446h197l594 -1065l276 1065h170l-393 -1458h-10l-721 1272l-334 -1260h-170z" />
<glyph unicode="O" horiz-adv-x="1622" d="M135 602q0 102 25.5 214t87 232.5t151.5 215t235.5 156t321.5 61.5q135 0 247 -39t182.5 -102.5t119.5 -147.5t69.5 -171t20.5 -177q0 -86 -21.5 -190.5t-80.5 -228.5t-148.5 -223.5t-239 -167t-335.5 -67.5q-270 0 -452.5 161t-182.5 474zM328 600q0 -238 130 -370 t333 -132q168 0 295.5 82t194.5 207t98.5 245t31.5 222q0 88 -25.5 172t-79 160t-146.5 121t-216 45q-145 0 -261 -63.5t-180.5 -154t-106.5 -201t-55 -192.5t-13 -141z" />
<glyph unicode="P" horiz-adv-x="1067" d="M8 0l385 1446h322q188 0 314 -91t126 -272q0 -129 -74 -239q-154 -236 -544 -236q-104 0 -181 13l-166 -621h-182zM360 637l148 123q37 -8 86 -8q131 0 227 63q141 94 142 256q0 238 -295 238h-125z" />
<glyph unicode="Q" horiz-adv-x="1622" d="M137 598q0 106 26.5 222t90 236t155 213t233.5 152.5t312 59.5q139 0 252 -40t184.5 -104.5t120 -149.5t67.5 -170t19 -171q0 -197 -85 -387.5t-226 -313.5l246 -299l-131 -108l-260 309q-180 -80 -367 -80q-283 0 -460 165t-177 466zM328 600q0 -231 128 -367.5 t335 -136.5q195 0 340 115t212.5 284.5t67.5 364.5q0 106 -29.5 193.5t-75.5 141.5t-109.5 90t-126 51.5t-128.5 15.5q-158 0 -282.5 -77t-193.5 -194.5t-103.5 -241.5t-34.5 -239z" />
<glyph unicode="R" horiz-adv-x="1193" d="M8 0l385 1446h307q266 0 377 -156q63 -88 64 -207q0 -43 -13.5 -94t-48.5 -115.5t-111.5 -122t-185.5 -85.5l279 -666h-193l-258 635q-68 -6 -135 -6q-57 0 -117 6l-174 -635h-176zM360 651l152 131q25 -4 70 -4q217 0 317 135q55 76 55 162q0 35 -10 68t-36.5 72.5 t-90 64.5t-155.5 25h-125z" />
<glyph unicode="S" horiz-adv-x="1067" d="M20 84l48 176q168 -158 348 -158q98 0 166.5 38t98.5 94.5t41 98.5t11 72.5t-4 57t-16.5 51.5t-19.5 40t-28.5 38.5t-29.5 32t-36 34t-34 29.5l-98 90q-147 131 -148 303q0 141 99 252q133 147 364 148q178 0 334 -90l-43 -158q-23 18 -57.5 40.5t-102 47.5t-131.5 25 q-117 0 -196 -74q-82 -76 -82 -185q0 -53 25.5 -102t54 -78.5t88.5 -85.5l102 -94q152 -137 152 -315q0 -188 -138 -316q-141 -129 -368 -129q-217 0 -400 117z" />
<glyph unicode="T" horiz-adv-x="1110" d="M215 1309l37 137h1104l-37 -137h-453l-350 -1309h-178l350 1309h-473z" />
<glyph unicode="U" horiz-adv-x="1449" d="M127 416q0 82 45 246l211 784h186l-202 -754q-49 -180 -50 -266q0 -154 105.5 -234.5t245.5 -80.5q111 0 192.5 33.5t137 102t89 145.5t64.5 190l235 864h183l-260 -963q-41 -154 -97 -243q-66 -106 -202 -189.5t-348 -83.5q-242 0 -388.5 124t-146.5 325z" />
<glyph unicode="V" horiz-adv-x="1323" d="M252 1446h178l117 -1239l829 1239h197l-1000 -1446h-172z" />
<glyph unicode="W" horiz-adv-x="1878" d="M223 0q37 1413 37 1446h174l-49 -1231l793 1243h14l145 -1239l617 1227h174l-746 -1446h-182l-123 1042l-674 -1042h-180z" />
<glyph unicode="X" horiz-adv-x="1280" d="M-156 0l772 762l-344 684h191l276 -561l557 561h222l-715 -701l375 -745h-193l-303 623l-621 -623h-217z" />
<glyph unicode="Y" horiz-adv-x="1236" d="M242 1446h182l250 -739l626 739h205l-786 -909l-139 -537h-177l148 559z" />
<glyph unicode="Z" horiz-adv-x="1236" d="M-94 0l20 86l1190 1223h-862l43 137h1092l-35 -135l-1151 -1170h997l-137 -141h-1157z" />
<glyph unicode="[" horiz-adv-x="565" d="M-55 -295l499 1866h363l-33 -125h-190l-430 -1614h188l-35 -127h-362z" />
<glyph unicode="\" horiz-adv-x="724" d="M244 1446h174l170 -1446h-172z" />
<glyph unicode="]" horiz-adv-x="565" d="M-176 -295l35 127h188l432 1612h-188l33 127h362l-500 -1866h-362z" />
<glyph unicode="^" horiz-adv-x="1482" d="M250 588l645 858h178l187 -858h-170l-138 702l-514 -702h-188z" />
<glyph unicode="_" d="M76 -301h1065v-121h-1065v121z" />
<glyph unicode="`" horiz-adv-x="555" d="M68 1419l38 174l383 -313l-34 -143z" />
<glyph unicode="a" d="M39 332q0 119 45 241.5t126 226t212 169t285 65.5q180 0 331 -71l-184 -678q-37 -135 -37 -211q0 -35 6 -74h-172q-4 41 -4 59q0 39 4 68l-139 -129q-63 -18 -139 -18q-145 0 -239.5 86t-94.5 266zM217 336q0 -117 58.5 -176.5t160.5 -59.5q121 0 217 66l197 715 q-70 30 -156 30h-6q-174 0 -299 -137q-78 -84 -125 -203.5t-47 -234.5z" />
<glyph unicode="b" horiz-adv-x="1067" d="M-18 53l370 1393h162l-145 -563l149 131q68 20 131 20q145 0 244 -88q117 -104 117 -301q0 -154 -65.5 -292t-186.5 -234q-170 -139 -418 -139h-5q-203 0 -353 73zM170 133q86 -33 174 -33q84 0 166 31q240 94 305 367q18 68 19 139q0 123 -68 195.5t-191 72.5 q-102 0 -217 -61z" />
<glyph unicode="c" horiz-adv-x="854" d="M57 418q0 188 105 356q170 260 465 260q141 0 282 -67l-43 -150q-100 94 -239 94q-178 0 -284.5 -154.5t-106.5 -336.5q0 -88 30.5 -152.5t68.5 -95.5t93 -48.5t83 -19.5t56 -2q78 0 240 45l-164 -155q-57 -14 -137 -15q-219 0 -334 124t-115 317z" />
<glyph unicode="d" horiz-adv-x="1067" d="M43 354q0 49 10 105.5t36 133.5t84 157.5t142 144.5q182 139 418 139q88 0 193 -18l114 430h166l-387 -1446h-164l35 127l-143 -127q-76 -20 -139 -20q-145 0 -255 93t-110 281zM213 367q0 -20 2 -43t17.5 -65t40 -72.5t76.5 -55.5t124 -25q106 1 225 60l193 721 q-77 26 -158 26h-6q-207 0 -356 -161q-88 -94 -123 -203t-35 -182z" />
<glyph unicode="e" d="M61 418q0 283 201 473q150 143 369 143q172 0 264 -98t92 -256q0 -55 -16 -137h-717q-14 -39 -14 -119q0 -123 73 -215q84 -106 273 -107q35 0 63.5 2t64.5 11.5t48 12.5t61.5 19.5t59.5 18.5l-166 -168q-98 -18 -185 -18q-119 0 -209 34.5t-138 82.5t-77.5 113.5 t-38 114t-8.5 93.5zM289 655h534v41q0 90 -48 156t-164.5 66t-206.5 -79.5t-115 -183.5z" />
<glyph unicode="f" horiz-adv-x="512" d="M8 0l240 889h-119l119 123h35l49 182q76 276 332 276q90 0 149 -22l-37 -131q-51 26 -104 26h-4q-59 0 -101 -32q-33 -27 -47 -54.5t-33 -99.5l-38 -145h188l-35 -123h-186l-238 -889h-170z" />
<glyph unicode="g" horiz-adv-x="1067" d="M-115 -309l41 147q164 -127 336 -127q113 0 206 51.5t144 143.5q35 61 82 231l15 53l-131 -124q-57 -16 -148 -17q-178 0 -275.5 101.5t-97.5 281.5q0 113 43 225q74 184 228.5 280.5t357.5 96.5q199 0 389 -82l-235 -876q-23 -80 -38.5 -126t-49 -106.5t-80.5 -105.5 q-152 -152 -406 -152q-205 0 -381 105zM231 436q0 -115 65.5 -190.5t186.5 -75.5q82 0 236 63l172 639q-102 45 -209 46q-111 0 -201 -46q-117 -57 -183.5 -180t-66.5 -256z" />
<glyph unicode="h" d="M-29 0l391 1446h162l-149 -565l133 129q102 24 163 24h5q133 0 212 -75.5t79 -188.5q0 -76 -39 -221l-150 -549h-162l142 539q39 150 39 194q0 84 -58.5 128t-142.5 44q-104 0 -236 -65l-223 -840h-166z" />
<glyph unicode="i" horiz-adv-x="382" d="M-29 0l273 1012h164l-273 -1012h-164zM326 1384q0 43 29.5 71t72.5 28q39 0 67.5 -29t28.5 -68q0 -43 -28.5 -72.5t-71.5 -29.5q-39 0 -68.5 29.5t-29.5 70.5z" />
<glyph unicode="j" horiz-adv-x="382" d="M-133 -391l377 1403h164l-369 -1360zM313 1384q0 43 30 71t73 28q39 0 67.5 -29t28.5 -68q0 -43 -28.5 -72.5t-71.5 -29.5q-39 0 -69 29.5t-30 70.5z" />
<glyph unicode="k" horiz-adv-x="937" d="M-27 0l385 1446h164l-231 -866l530 432h226l-576 -469l371 -543h-207l-356 532l-142 -532h-164z" />
<glyph unicode="l" horiz-adv-x="382" d="M-27 0l389 1446h162l-381 -1446h-170z" />
<glyph unicode="m" horiz-adv-x="1622" d="M-29 0l273 1012h166l-35 -131l145 133q76 20 150 20q215 0 274 -178l168 152q83 26 147 26h5q127 0 213 -71q84 -70 84 -197q0 -61 -39 -217l-148 -549h-164l152 567q29 106 29 164q0 55 -25 92t-63.5 51.5t-64.5 19.5t-46 5q-63 0 -133 -24.5t-109 -55.5 q0 -102 -30 -215l-162 -604h-168l155 586q31 123 31 153q0 63 -45 112.5t-143 49.5q-100 0 -226 -63l-223 -838h-168z" />
<glyph unicode="n" d="M-27 0l271 1012h168l-35 -133l137 133q77 22 150 22h6q86 0 148.5 -26.5t92 -69.5t43 -85t13.5 -83q0 -70 -29 -170l-160 -600h-162l152 575q31 123 31 162q0 84 -57.5 126t-143.5 42q-123 0 -231 -65l-226 -840h-168z" />
<glyph unicode="o" horiz-adv-x="1067" d="M55 410q0 145 62.5 285.5t194.5 239.5t300 99q190 0 294 -116.5t104 -309.5q0 -102 -35 -208.5t-99.5 -202t-174 -156.5t-242.5 -61q-88 0 -160 26.5t-116 69.5t-73.5 100t-42 114.5t-12.5 119.5zM227 395q0 -66 17.5 -126t74 -113.5t144.5 -53.5q168 0 272.5 166.5 t104.5 356.5q0 154 -73 222t-165 68q-154 0 -264.5 -160.5t-110.5 -359.5z" />
<glyph unicode="p" d="M-143 -422l387 1434h164l-33 -125l137 127q76 20 135 20q164 0 252 -108.5t88 -268.5q0 -74 -23.5 -159.5t-78 -179t-130 -168t-192.5 -124t-254 -49.5q-41 0 -172 21l-114 -420h-166zM174 127q80 -27 152 -27q199 0 344 169t145 380q0 125 -63.5 191.5t-171.5 66.5 q-88 0 -215 -59z" />
<glyph unicode="q" d="M45 354q0 236 139 426q188 254 510 254h5q167 0 333 -73l-366 -1383h-164l143 551l-143 -131q-74 -18 -117 -18q-141 0 -240.5 95t-99.5 279zM221 373q0 -113 56.5 -188.5t173.5 -75.5q93 0 204 59l191 711q-64 32 -154 32h-6q-166 0 -293 -116q-63 -61 -117.5 -169 t-54.5 -253z" />
<glyph unicode="r" horiz-adv-x="641" d="M-31 0l273 1012h161l-41 -160l170 168q57 14 115 14q74 0 133 -22l-43 -158q-86 43 -168 43q-102 0 -211 -66l-225 -831h-164z" />
<glyph unicode="s" horiz-adv-x="681" d="M-100 37l47 158q109 -94 233 -95q106 0 163.5 58.5t57.5 134.5q0 43 -21.5 80t-43 55t-64.5 51l-59 47q-98 84 -98 203q0 78 35 139q90 166 327 166q121 0 264 -57l-41 -150q-2 2 -16 13.5t-24.5 18.5t-31 18.5t-40 17.5t-47 11t-56.5 5q-72 0 -134 -43t-62 -127 q0 -80 119 -170l32 -24q139 -102 140 -246q0 -84 -43 -154q-103 -167 -360 -167h-3q-141 0 -274 57z" />
<glyph unicode="t" horiz-adv-x="555" d="M57 162q0 55 27 149l154 578h-119l119 123h30l51 186l181 45l-62 -231h207l-37 -123h-205l-147 -557q-27 -102 -27 -139q0 -92 113 -93q25 0 123 13l-117 -117q-51 -16 -96 -16q-86 0 -140.5 49t-54.5 133z" />
<glyph unicode="u" d="M57 254q0 66 31 174l156 584h166l-154 -561q-31 -119 -31 -170q0 -82 54.5 -128.5t140.5 -46.5q92 0 237 62l226 844h166l-271 -1012h-168l35 125l-133 -125q-86 -20 -143 -20q-205 0 -279 139q-33 63 -33 135z" />
<glyph unicode="v" horiz-adv-x="980" d="M137 1012h172l74 -840l535 840h182l-674 -1012h-174z" />
<glyph unicode="w" horiz-adv-x="1409" d="M109 0q29 989 28 1012h158l-33 -824l539 824h8l115 -826l405 826h166l-522 -1012h-172l-86 655l-434 -655h-172z" />
<glyph unicode="x" horiz-adv-x="937" d="M-160 0l543 543l-242 469h181l180 -353l354 353h199l-488 -486l264 -526h-184l-203 406l-405 -406h-199z" />
<glyph unicode="y" horiz-adv-x="937" d="M-176 -412l33 125q20 -2 34 -2q53 0 99.5 19.5t84.5 57.5t61.5 68.5t53.5 80.5l46 75l-113 1000h162l84 -828l512 828h176l-760 -1172q-86 -135 -180 -195.5t-219 -60.5q-20 0 -74 4z" />
<glyph unicode="z" horiz-adv-x="894" d="M-90 0l22 82l773 805h-555l32 125h766l-33 -125l-741 -762h627l-127 -125h-764z" />
<glyph unicode="{" horiz-adv-x="600" d="M63 -119q0 47 31 158l88 328q20 72 21 108q0 51 -26.5 72.5t-113.5 30.5l33 122q119 10 158 44t76 169l86 324q27 100 48 153.5t59 99.5t95.5 63.5t149.5 17.5h78l-31 -119h-29q-102 0 -133.5 -38t-68.5 -177l-90 -338q-35 -133 -84.5 -190.5t-157.5 -79.5 q61 -23 89 -56.5t28 -91.5q0 -37 -21 -119l-90 -342q-25 -96 -25 -124q0 -39 27 -55.5t92 -16.5h27l-33 -119h-76q-100 0 -153.5 46t-53.5 130z" />
<glyph unicode="|" horiz-adv-x="479" d="M-63 -295l499 1866h174l-499 -1866h-174z" />
<glyph unicode="}" horiz-adv-x="600" d="M-182 -295l30 119h29q100 0 131 35t70 180l92 338q37 135 85 191.5t157 78.5q-63 23 -90 56.5t-27 91.5q0 47 18 120l86 320q31 113 31 147q0 37 -26.5 53.5t-92.5 16.5h-26l32 119h76q98 0 151.5 -46t53.5 -130q0 -53 -29 -158l-88 -328q-20 -72 -20 -108 q0 -51 24.5 -71.5t114.5 -31.5l-33 -123q-119 -10 -157.5 -43.5t-75.5 -169.5l-86 -323q-53 -199 -120 -266.5t-234 -67.5h-76z" />
<glyph unicode="~" horiz-adv-x="1482" d="M150 463l57 217q143 115 285 115q63 0 108 -13.5t168 -76.5l84 -43q102 -51 162 -52q74 0 153.5 38.5t208.5 144.5l-57 -220q-182 -127 -334 -127q-106 0 -248 78l-67 37q-123 66 -199 66q-139 0 -321 -164z" />
<glyph unicode="&#xa1;" horiz-adv-x="512" d="M12 0l285 979l170 76l-262 -1055h-193zM360 1352q0 45 31 75.5t74 30.5q47 0 78.5 -29.5t31.5 -74.5t-30.5 -77t-75.5 -32t-77 32t-32 75z" />
<glyph unicode="&#xa2;" horiz-adv-x="948" d="M141 410q0 248 144.5 415.5t367.5 178.5l56 208h137l-58 -219q92 -16 160 -57l-41 -150q-92 90 -213 91q-188 0 -285.5 -137.5t-97.5 -315.5q0 -141 81 -218t222 -77q92 0 230 47l-152 -162q-66 -14 -168 -14l-55 -211h-137l61 236q-252 94 -252 385z" />
<glyph unicode="&#xa3;" horiz-adv-x="1196" d="M92 0l133 129l131 494h-245l36 137h248l56 205q55 203 197.5 326.5t363.5 123.5q154 0 295 -67l-43 -150q-125 84 -250 84q-96 0 -169 -32.5t-118 -96t-72.5 -128t-50.5 -153.5l-29 -112h355l-35 -137h-358l-127 -494h714l-129 -129h-903z" />
<glyph unicode="&#xa4;" horiz-adv-x="1374" d="M119 264l166 142q-88 139 -88 288q0 190 131 348l-142 162l117 101l141 -160q137 86 289 86q203 0 348 -129l164 141l103 -119l-164 -143q86 -145 86 -285q0 -190 -131 -350l141 -166l-117 -102l-143 166q-84 -49 -144.5 -67.5t-140.5 -18.5q-104 0 -182 29.5t-168 101.5 l-164 -142zM354 692q0 -164 110.5 -273.5t278.5 -109.5q156 0 262.5 114t106.5 277q0 162 -108.5 270.5t-268.5 108.5q-162 0 -271.5 -110.5t-109.5 -276.5z" />
<glyph unicode="&#xa5;" horiz-adv-x="1218" d="M154 350l32 123h334l23 76l-29 88h-285l35 123h207l-225 639h182l236 -705l598 705h202l-549 -639h211l-32 -123h-289l-94 -109l-17 -55h371l-31 -123h-368l-93 -350h-176l92 350h-335z" />
<glyph unicode="&#xa6;" horiz-adv-x="477" d="M-63 -297l217 811h172l-217 -811h-172zM219 758l217 811h172l-217 -811h-172z" />
<glyph unicode="&#xa7;" horiz-adv-x="894" d="M-129 -313l41 157q154 -125 281 -125q86 0 145 55.5t59 139.5q0 102 -123 244l-47 53q-145 166 -145 319q0 156 112.5 250t276.5 94q-141 141 -141 287q0 35 14 80t50 101.5t115 94.5t187 38q166 0 305 -117l-43 -158q-131 141 -260 141q-82 0 -135 -50t-53 -130 q0 -57 31.5 -107t117.5 -145l48 -51q137 -145 137 -299q0 -145 -105.5 -249.5t-269.5 -133.5q106 -125 106 -256q0 -141 -100 -239q-98 -98 -270 -99q-100 0 -199.5 37t-134.5 68zM256 537q0 -111 131 -254q111 10 194 78.5t83 181.5q0 90 -97 223q-8 2 -49 2 q-106 0 -184 -65.5t-78 -165.5z" />
<glyph unicode="&#xa8;" horiz-adv-x="555" d="M6 1331q0 43 31 76t76 33t76.5 -31t31.5 -78t-31.5 -77.5t-76.5 -30.5t-76 31.5t-31 76.5zM334 1331q0 43 30.5 76t75.5 33t77 -31t32 -78t-32 -77.5t-77 -30.5t-75.5 31.5t-30.5 76.5z" />
<glyph unicode="&#xa9;" horiz-adv-x="1597" d="M125 727q0 303 212 514t517 211t517 -210t212 -513q0 -311 -213 -523t-518 -212t-516 213t-211 520zM197 721q0 -274 192.5 -466t464.5 -192q270 0 462.5 192t192.5 464q0 281 -189.5 472t-465.5 191q-274 0 -465.5 -192.5t-191.5 -468.5zM453 637q0 231 146 387t364 156 q122 -1 241 -50l-41 -147q-90 66 -211 66q-160 0 -251 -124t-91 -292q0 -121 71 -188.5t196 -67.5q109 0 231 47l-115 -150q-84 -25 -153 -24q-176 0 -281.5 105.5t-105.5 281.5z" />
<glyph unicode="&#xaa;" horiz-adv-x="681" d="M197 1008q0 178 124.5 315t301.5 137q111 0 227 -49l-121 -436q-23 -90 -22 -133q0 -29 6 -54h-125q-4 25 -4 39q0 6 1 17.5t1 13.5l-76 -72q-45 -12 -88 -12q-72 0 -121 25.5t-69.5 68.5t-27.5 75t-7 65zM326 1008q0 -80 38.5 -111t90.5 -31q80 0 135 41l121 445 q-43 16 -93 16q-133 0 -212.5 -116.5t-79.5 -243.5z" />
<glyph unicode="&#xab;" horiz-adv-x="724" d="M39 524l250 320h160l-267 -334l140 -307h-140zM340 518l258 326h158l-271 -338l136 -303h-136z" />
<glyph unicode="&#xac;" horiz-adv-x="1482" d="M137 535l43 157h1159l-182 -682h-172l139 525h-987z" />
<glyph unicode="&#xad;" horiz-adv-x="681" d="M-2 471l133 123h557l-129 -123h-561z" />
<glyph unicode="&#xae;" horiz-adv-x="1597" d="M125 727q0 303 212 514t517 211t517 -210t212 -513q0 -311 -213 -523t-518 -212t-516 213t-211 520zM197 721q0 -274 192.5 -466t464.5 -192q270 0 462.5 192t192.5 464q0 281 -189.5 472t-465.5 191q-274 0 -465.5 -192.5t-191.5 -468.5zM461 289l233 872h189 q319 0 319 -225q0 -186 -215 -252l152 -395h-154l-135 373h-53q-47 0 -86 2l-103 -375h-147zM717 688l84 96q49 -4 51 -4q96 0 148.5 37t52.5 105q0 121 -176 120h-66z" />
<glyph unicode="&#xaf;" horiz-adv-x="555" d="M-4 1221l37 147h526l-37 -147h-526z" />
<glyph unicode="&#xb0;" horiz-adv-x="724" d="M158 1231q0 125 89 213t212 88q125 0 213 -88t88 -213q0 -123 -89 -212t-212 -89q-125 0 -213 88t-88 213zM281 1229q0 -72 52 -124t126 -52q76 0 127 52t51 126t-53.5 126t-126.5 52q-72 0 -124 -52t-52 -128z" />
<glyph unicode="&#xb1;" horiz-adv-x="1482" d="M55 2l41 156h1100l-43 -156h-1098zM248 727l43 154h463l120 448h170l-120 -448h465l-41 -154h-465l-121 -453h-170l121 453h-465z" />
<glyph unicode="&#xb2;" horiz-adv-x="784" d="M74 494l22 92l398 332q170 139 170 264q0 57 -39 90t-105 33q-121 0 -254 -144l41 170q102 84 234 84q117 0 193.5 -62.5t76.5 -170.5q0 -74 -39 -143.5t-73.5 -102.5t-92.5 -78l-330 -256h449l-102 -108h-549z" />
<glyph unicode="&#xb3;" horiz-adv-x="784" d="M98 524l33 125q109 -61 223 -61q125 0 180.5 53t55.5 119q0 174 -246 174h-22l96 106q10 -2 28 -2q109 0 163.5 43t54.5 111q0 111 -134 111q-119 0 -247 -125l41 165q109 72 223 72q119 0 187.5 -56t68.5 -159q0 -92 -62.5 -149.5t-156.5 -83.5q74 -23 114.5 -81.5 t40.5 -117.5q0 -115 -94 -203t-291 -88q-131 0 -256 47z" />
<glyph unicode="&#xb4;" horiz-adv-x="555" d="M37 1137l45 172l436 262l-45 -203z" />
<glyph unicode="&#xb6;" horiz-adv-x="1310" d="M285 -342l266 1004q-225 80 -225 333q0 109 49 204t137 157q72 51 156 70.5t231 19.5h463l-31 -111h-67l-447 -1677h-117l445 1677h-297l-447 -1677h-116z" />
<glyph unicode="&#xb7;" horiz-adv-x="425" d="M106 551q0 47 31 79t76 32t77 -32t32 -77t-32 -78t-77 -33t-76 32t-31 77z" />
<glyph unicode="&#xb8;" horiz-adv-x="555" d="M86 -539l43 131q94 8 141 41t47 80q0 43 -32.5 71t-89.5 28l129 219h108l-84 -146q123 -39 123 -174q0 -104 -99.5 -172.5t-285.5 -77.5z" />
<glyph unicode="&#xb9;" horiz-adv-x="784" d="M324 494l196 720l-168 -84l37 140l324 160l-254 -936h-135z" />
<glyph unicode="&#xba;" horiz-adv-x="681" d="M188 1061q0 61 22.5 127.5t65.5 129t116 102.5t161 40q123 0 190.5 -77.5t67.5 -196.5q0 -156 -97.5 -284t-258.5 -128q-98 0 -162 48t-84.5 108.5t-20.5 130.5zM313 1049q0 -92 41 -137.5t103 -45.5q80 0 135 63.5t75.5 133.5t20.5 127q0 92 -41 136t-102 44 q-94 0 -163 -99.5t-69 -221.5z" />
<glyph unicode="&#xbb;" horiz-adv-x="724" d="M-25 203l269 338l-135 303h135l145 -316l-256 -325h-158zM281 203l266 334l-137 307h137l145 -322l-252 -319h-159z" />
<glyph unicode="&#xbc;" horiz-adv-x="1802" d="M264 494l197 720l-168 -84l37 140l323 160l-254 -936h-135zM365 0l868 1399h156l-871 -1399h-153zM885 229l606 676h164l-152 -569h133l-96 -107h-65l-62 -229h-135l61 229h-454zM1124 336h244l115 405z" />
<glyph unicode="&#xbd;" horiz-adv-x="1802" d="M276 494l197 720l-168 -84l37 140l324 160l-254 -936h-136zM356 0l869 1399h155l-870 -1399h-154zM954 0l23 92l397 332q170 139 170 264q0 57 -39 90t-104 33q-121 0 -254 -143l41 170q102 84 233 84q117 0 194 -62.5t77 -171.5q0 -74 -39 -143.5t-74 -102t-92 -77.5 l-330 -256h449l-103 -109h-549z" />
<glyph unicode="&#xbe;" horiz-adv-x="1802" d="M86 524l33 125q109 -61 223 -61q125 0 180.5 53t55.5 119q0 174 -246 174h-23l97 106q10 -2 28 -2q109 0 163 43t54 111q0 111 -133 111q-119 0 -248 -125l41 165q109 72 224 72q119 0 187.5 -56t68.5 -159q0 -92 -62.5 -149.5t-157.5 -83.5q74 -23 115 -81.5t41 -117.5 q0 -115 -94 -203t-291 -88q-131 0 -256 47zM444 0l869 1399h155l-870 -1399h-154zM965 229l606 676h164l-152 -569h133l-96 -107h-66l-61 -229h-135l61 229h-454zM1204 336h244l115 405z" />
<glyph unicode="&#xbf;" horiz-adv-x="854" d="M-16 317q0 190 150.5 303t346.5 119l60 215l198 93l-118 -447q-18 2 -56 2q-117 0 -201.5 -31.5t-122.5 -81t-53.5 -91.5t-15.5 -79q0 -92 69.5 -150t170.5 -58q115 0 282 73l-51 -178q-133 -41 -262 -41q-188 0 -292.5 106.5t-104.5 245.5zM621 1352q0 43 30.5 74.5 t77.5 31.5q45 0 76 -30.5t31 -75.5t-33 -76t-74 -31q-43 0 -75.5 31t-32.5 76z" />
<glyph unicode="&#xc0;" horiz-adv-x="1323" d="M-143 0l970 1446h195l178 -1446h-178l-51 418h-639l-269 -418h-206zM420 557h536l-77 709zM664 1786l49 153l424 -260l-43 -137z" />
<glyph unicode="&#xc1;" horiz-adv-x="1323" d="M-143 0l970 1446h195l178 -1446h-178l-51 418h-639l-269 -418h-206zM420 557h536l-77 709zM760 1544l51 174l455 236l-52 -201z" />
<glyph unicode="&#xc2;" horiz-adv-x="1323" d="M-143 0l970 1446h195l178 -1446h-178l-51 418h-639l-269 -418h-206zM420 557h536l-77 709zM633 1540l37 146l329 192l250 -207l-39 -131l-243 166z" />
<glyph unicode="&#xc3;" horiz-adv-x="1323" d="M-143 0l970 1446h195l178 -1446h-178l-51 418h-639l-269 -418h-206zM420 557h536l-77 709zM627 1581l49 164q84 78 178 78q55 0 133 -47q59 -35 129 -35q85 0 191 86l-43 -158q-80 -84 -174 -84q-49 0 -140 43q-84 41 -133 41q-94 0 -190 -88z" />
<glyph unicode="&#xc4;" horiz-adv-x="1323" d="M-143 0l970 1446h195l178 -1446h-178l-51 418h-639l-269 -418h-206zM420 557h536l-77 709zM674 1724q0 41 28.5 71t73.5 30q43 0 74 -29t31 -72t-31 -71.5t-74 -28.5t-72.5 29.5t-29.5 70.5zM1051 1724q0 41 28.5 71t73.5 30q43 0 73.5 -29t30.5 -72t-30.5 -71.5 t-73.5 -28.5t-72.5 29.5t-29.5 70.5z" />
<glyph unicode="&#xc5;" horiz-adv-x="1323" d="M-143 0l970 1446h195l178 -1446h-178l-51 418h-639l-269 -418h-206zM420 557h536l-77 709zM750 1726q0 88 59 146.5t147 58.5q90 0 149.5 -58.5t59.5 -146.5q0 -90 -59 -148t-150 -58q-92 0 -149 58t-57 148zM854 1726q0 -47 28.5 -76.5t73.5 -29.5t74 29.5t29 77t-29 76 t-74 28.5q-43 0 -72.5 -31t-29.5 -74z" />
<glyph unicode="&#xc6;" horiz-adv-x="1878" d="M-156 0l1256 1446h903l-37 -137h-618l-129 -480h542l-37 -137h-542l-146 -551h733l-141 -141h-811l113 426h-514l-367 -426h-205zM532 563h435l194 733z" />
<glyph unicode="&#xc7;" horiz-adv-x="1366" d="M137 616q0 324 225 570q268 295 723 295q190 0 404 -64l-43 -162q-176 88 -385 88q-158 0 -287 -53q-199 -82 -321.5 -258t-122.5 -387q0 -270 174 -418q147 -125 391 -125q199 0 422 88l-193 -190q-113 -35 -241 -35q-8 0 -24.5 1t-22.5 1l-52 -86q129 -43 129 -180 q0 -106 -103 -178t-300 -80l45 135q100 8 149.5 42t49.5 83q0 45 -36 73.5t-95 28.5l102 170q-209 29 -344 134q-117 88 -180.5 223t-63.5 284z" />
<glyph unicode="&#xc8;" horiz-adv-x="1067" d="M2 0l387 1446h805l-37 -137h-622l-127 -480h542l-39 -137h-540l-148 -551h738l-140 -141h-819zM524 1786l49 153l424 -260l-43 -137z" />
<glyph unicode="&#xc9;" horiz-adv-x="1067" d="M2 0l387 1446h805l-37 -137h-622l-127 -480h542l-39 -137h-540l-148 -551h738l-140 -141h-819zM651 1544l51 174l455 236l-51 -201z" />
<glyph unicode="&#xca;" horiz-adv-x="1067" d="M2 0l387 1446h805l-37 -137h-622l-127 -480h542l-39 -137h-540l-148 -551h738l-140 -141h-819zM506 1540l37 146l329 192l250 -207l-39 -131l-243 166z" />
<glyph unicode="&#xcb;" horiz-adv-x="1067" d="M2 0l387 1446h805l-37 -137h-622l-127 -480h542l-39 -137h-540l-148 -551h738l-140 -141h-819zM549 1724q0 41 28.5 71t73.5 30q43 0 74 -29t31 -72t-31 -71.5t-74 -28.5t-72.5 29.5t-29.5 70.5zM926 1724q0 41 28.5 71t73.5 30q43 0 74 -29t31 -72t-31 -71.5t-74 -28.5 t-72.5 29.5t-29.5 70.5z" />
<glyph unicode="&#xcc;" horiz-adv-x="468" d="M6 0l387 1446h182l-387 -1446h-182zM236 1786l49 153l424 -260l-43 -137z" />
<glyph unicode="&#xcd;" horiz-adv-x="468" d="M6 0l387 1446h182l-387 -1446h-182zM348 1544l51 174l455 236l-51 -201z" />
<glyph unicode="&#xce;" horiz-adv-x="468" d="M6 0l387 1446h182l-387 -1446h-182zM209 1540l37 146l329 192l250 -207l-39 -131l-243 166z" />
<glyph unicode="&#xcf;" horiz-adv-x="468" d="M6 0l387 1446h182l-387 -1446h-182zM236 1724q0 41 28.5 71t73.5 30q43 0 73.5 -29t30.5 -72t-30.5 -71.5t-73.5 -28.5t-72.5 29.5t-29.5 70.5zM612 1724q0 41 29 71t74 30q43 0 73.5 -29t30.5 -72t-30.5 -71.5t-73.5 -28.5t-73 29.5t-30 70.5z" />
<glyph unicode="&#xd0;" horiz-adv-x="1449" d="M8 0l187 692h-142l33 123h143l168 631h391q84 0 146.5 -6t147.5 -28.5t154 -78t116 -141.5q78 -143 78 -322q0 -170 -55.5 -328.5t-190.5 -300t-334 -200.5q-137 -41 -361 -41h-481zM225 137h271q186 0 305 41q111 39 198.5 116t140 171t79 193.5t26.5 193.5 q0 131 -43 227q-96 227 -411 228h-250l-133 -492h444l-35 -123h-442z" />
<glyph unicode="&#xd1;" horiz-adv-x="1536" d="M8 0l391 1446h197l594 -1065l276 1065h170l-393 -1458h-10l-721 1272l-334 -1260h-170zM737 1581l49 164q84 78 179 78q55 0 133 -47q59 -35 129 -35q84 0 190 86l-43 -158q-80 -84 -174 -84q-49 0 -139 43q-84 41 -133 41q-94 0 -191 -88z" />
<glyph unicode="&#xd2;" horiz-adv-x="1622" d="M135 602q0 102 25.5 214t87 232.5t151.5 215t235.5 156t321.5 61.5q135 0 247 -39t182.5 -102.5t119.5 -147.5t69.5 -171t20.5 -177q0 -86 -21.5 -190.5t-80.5 -228.5t-148.5 -223.5t-239 -167t-335.5 -67.5q-270 0 -452.5 161t-182.5 474zM328 600q0 -238 130 -370 t333 -132q168 0 295.5 82t194.5 207t98.5 245t31.5 222q0 88 -25.5 172t-79 160t-146.5 121t-216 45q-145 0 -261 -63.5t-180.5 -154t-106.5 -201t-55 -192.5t-13 -141zM731 1786l49 153l424 -260l-43 -137z" />
<glyph unicode="&#xd3;" horiz-adv-x="1622" d="M135 602q0 102 25.5 214t87 232.5t151.5 215t235.5 156t321.5 61.5q135 0 247 -39t182.5 -102.5t119.5 -147.5t69.5 -171t20.5 -177q0 -86 -21.5 -190.5t-80.5 -228.5t-148.5 -223.5t-239 -167t-335.5 -67.5q-270 0 -452.5 161t-182.5 474zM328 600q0 -238 130 -370 t333 -132q168 0 295.5 82t194.5 207t98.5 245t31.5 222q0 88 -25.5 172t-79 160t-146.5 121t-216 45q-145 0 -261 -63.5t-180.5 -154t-106.5 -201t-55 -192.5t-13 -141zM846 1544l51 174l455 236l-52 -201z" />
<glyph unicode="&#xd4;" horiz-adv-x="1622" d="M135 602q0 102 25.5 214t87 232.5t151.5 215t235.5 156t321.5 61.5q135 0 247 -39t182.5 -102.5t119.5 -147.5t69.5 -171t20.5 -177q0 -86 -21.5 -190.5t-80.5 -228.5t-148.5 -223.5t-239 -167t-335.5 -67.5q-270 0 -452.5 161t-182.5 474zM328 600q0 -238 130 -370 t333 -132q168 0 295.5 82t194.5 207t98.5 245t31.5 222q0 88 -25.5 172t-79 160t-146.5 121t-216 45q-145 0 -261 -63.5t-180.5 -154t-106.5 -201t-55 -192.5t-13 -141zM700 1540l37 146l330 192l250 -207l-39 -131l-244 166z" />
<glyph unicode="&#xd5;" horiz-adv-x="1622" d="M135 602q0 102 25.5 214t87 232.5t151.5 215t235.5 156t321.5 61.5q135 0 247 -39t182.5 -102.5t119.5 -147.5t69.5 -171t20.5 -177q0 -86 -21.5 -190.5t-80.5 -228.5t-148.5 -223.5t-239 -167t-335.5 -67.5q-270 0 -452.5 161t-182.5 474zM328 600q0 -238 130 -370 t333 -132q168 0 295.5 82t194.5 207t98.5 245t31.5 222q0 88 -25.5 172t-79 160t-146.5 121t-216 45q-145 0 -261 -63.5t-180.5 -154t-106.5 -201t-55 -192.5t-13 -141zM741 1581l50 164q84 78 178 78q55 0 133 -47q59 -35 129 -35q84 0 190 86l-43 -158q-80 -84 -174 -84 q-49 0 -139 43q-84 41 -133 41q-94 0 -191 -88z" />
<glyph unicode="&#xd6;" horiz-adv-x="1622" d="M135 602q0 102 25.5 214t87 232.5t151.5 215t235.5 156t321.5 61.5q135 0 247 -39t182.5 -102.5t119.5 -147.5t69.5 -171t20.5 -177q0 -86 -21.5 -190.5t-80.5 -228.5t-148.5 -223.5t-239 -167t-335.5 -67.5q-270 0 -452.5 161t-182.5 474zM328 600q0 -238 130 -370 t333 -132q168 0 295.5 82t194.5 207t98.5 245t31.5 222q0 88 -25.5 172t-79 160t-146.5 121t-216 45q-145 0 -261 -63.5t-180.5 -154t-106.5 -201t-55 -192.5t-13 -141zM782 1724q0 41 29 71t74 30q43 0 73.5 -29t30.5 -72t-30.5 -71.5t-73.5 -28.5t-73 29.5t-30 70.5z M1159 1724q0 41 29 71t74 30q43 0 73.5 -29t30.5 -72t-30.5 -71.5t-73.5 -28.5t-73 29.5t-30 70.5z" />
<glyph unicode="&#xd7;" horiz-adv-x="1482" d="M260 334l391 291l-264 356l135 104l264 -354l398 295l88 -117l-395 -297l264 -360l-135 -105l-265 361l-393 -293z" />
<glyph unicode="&#xd8;" horiz-adv-x="1622" d="M-31 92l240 193q-68 150 -68 315q0 160 53.5 313.5t152.5 281.5t258 207t349 79q66 0 137.5 -10.5t182 -60.5t178.5 -136l199 156l86 -107l-209 -164q70 -160 69 -313q0 -356 -230 -617.5t-587 -261.5q-166 0 -293 56.5t-200 144.5l-234 -182zM326 604q-1 -123 30 -207 l961 770q-72 88 -153 136.5t-224 48.5q-113 0 -208 -39t-159.5 -103.5t-114.5 -143.5t-78 -165t-41 -160.5t-13 -136.5zM420 272q125 -176 368 -176q188 0 334 114t217.5 284t71.5 358q0 110 -31 190z" />
<glyph unicode="&#xd9;" horiz-adv-x="1449" d="M127 416q0 82 45 246l211 784h186l-202 -754q-49 -180 -50 -266q0 -154 105.5 -234.5t245.5 -80.5q111 0 192.5 33.5t137 102t89 145.5t64.5 190l235 864h183l-260 -963q-41 -154 -97 -243q-66 -106 -202 -189.5t-348 -83.5q-242 0 -388.5 124t-146.5 325zM672 1786 l49 153l424 -260l-43 -137z" />
<glyph unicode="&#xda;" horiz-adv-x="1449" d="M127 416q0 82 45 246l211 784h186l-202 -754q-49 -180 -50 -266q0 -154 105.5 -234.5t245.5 -80.5q111 0 192.5 33.5t137 102t89 145.5t64.5 190l235 864h183l-260 -963q-41 -154 -97 -243q-66 -106 -202 -189.5t-348 -83.5q-242 0 -388.5 124t-146.5 325zM872 1544 l52 174l454 236l-51 -201z" />
<glyph unicode="&#xdb;" horiz-adv-x="1449" d="M127 416q0 82 45 246l211 784h186l-202 -754q-49 -180 -50 -266q0 -154 105.5 -234.5t245.5 -80.5q111 0 192.5 33.5t137 102t89 145.5t64.5 190l235 864h183l-260 -963q-41 -154 -97 -243q-66 -106 -202 -189.5t-348 -83.5q-242 0 -388.5 124t-146.5 325zM692 1540 l37 146l330 192l250 -207l-39 -131l-244 166z" />
<glyph unicode="&#xdc;" horiz-adv-x="1449" d="M127 416q0 82 45 246l211 784h186l-202 -754q-49 -180 -50 -266q0 -154 105.5 -234.5t245.5 -80.5q111 0 192.5 33.5t137 102t89 145.5t64.5 190l235 864h183l-260 -963q-41 -154 -97 -243q-66 -106 -202 -189.5t-348 -83.5q-242 0 -388.5 124t-146.5 325zM719 1724 q0 41 28.5 71t73.5 30q43 0 74 -29t31 -72t-31 -71.5t-74 -28.5t-72.5 29.5t-29.5 70.5zM1096 1724q0 41 28.5 71t73.5 30q43 0 74 -29t31 -72t-31 -71.5t-74 -28.5t-72.5 29.5t-29.5 70.5z" />
<glyph unicode="&#xdd;" horiz-adv-x="1236" d="M242 1446h182l250 -739l626 739h205l-786 -909l-139 -537h-177l148 559zM770 1544l51 174l455 236l-51 -201z" />
<glyph unicode="&#xde;" horiz-adv-x="1067" d="M8 0l385 1446h185l-80 -295h131q51 0 100 -5t115.5 -27.5t115 -59.5t82 -105.5t33.5 -162.5q0 -131 -74 -242q-158 -236 -555 -236q-98 1 -170 13l-88 -326h-180zM281 344l147 121q37 -8 78 -8q170 0 273.5 94t103.5 223q0 240 -310 240h-110z" />
<glyph unicode="&#xdf;" horiz-adv-x="1067" d="M-29 0l279 1034q66 242 172 336q113 100 301 100q154 0 248 -85t94 -218q0 -147 -104.5 -235t-210.5 -101q115 -39 176 -134t61 -214q0 -215 -149.5 -359t-366.5 -144q-111 0 -217 36l37 138q92 -49 178 -50q133 0 229 97q119 125 119 295q0 270 -336 295l119 116 q113 0 201 76t88 186q0 82 -50.5 130.5t-129.5 48.5q-57 0 -102.5 -20.5t-75 -49.5t-55 -86t-40 -103.5t-37.5 -125.5l-258 -963h-170z" />
<glyph unicode="&#xe0;" d="M39 332q0 119 45 241.5t126 226t212 169t285 65.5q180 0 331 -71l-184 -678q-37 -135 -37 -211q0 -35 6 -74h-172q-4 41 -4 59q0 39 4 68l-139 -129q-63 -18 -139 -18q-145 0 -239.5 86t-94.5 266zM217 336q0 -117 58.5 -176.5t160.5 -59.5q121 0 217 66l197 715 q-72 31 -162 30q-174 0 -299 -137q-78 -84 -125 -203.5t-47 -234.5zM467 1419l39 174l383 -313l-35 -143z" />
<glyph unicode="&#xe1;" d="M39 332q0 119 45 241.5t126 226t212 169t285 65.5q180 0 331 -71l-184 -678q-37 -135 -37 -211q0 -35 6 -74h-172q-4 41 -4 59q0 39 4 68l-139 -129q-63 -18 -139 -18q-145 0 -239.5 86t-94.5 266zM217 336q0 -117 58.5 -176.5t160.5 -59.5q121 0 217 66l197 715 q-72 31 -162 30q-174 0 -299 -137q-78 -84 -125 -203.5t-47 -234.5zM578 1137l45 172l436 262l-45 -203z" />
<glyph unicode="&#xe2;" d="M39 332q0 119 45 241.5t126 226t212 169t285 65.5q180 0 331 -71l-184 -678q-37 -135 -37 -211q0 -35 6 -74h-172q-4 41 -4 59q0 39 4 68l-139 -129q-63 -18 -139 -18q-145 0 -239.5 86t-94.5 266zM217 336q0 -117 58.5 -176.5t160.5 -59.5q121 0 217 66l197 715 q-72 31 -162 30q-174 0 -299 -137q-78 -84 -125 -203.5t-47 -234.5zM410 1137l47 172l319 247l221 -276l-41 -145l-208 231z" />
<glyph unicode="&#xe3;" d="M39 332q0 119 45 241.5t126 226t212 169t285 65.5q180 0 331 -71l-184 -678q-37 -135 -37 -211q0 -35 6 -74h-172q-4 41 -4 59q0 39 4 68l-139 -129q-63 -18 -139 -18q-145 0 -239.5 86t-94.5 266zM217 336q0 -117 58.5 -176.5t160.5 -59.5q121 0 217 66l197 715 q-72 31 -162 30q-174 0 -299 -137q-78 -84 -125 -203.5t-47 -234.5zM406 1186l49 160q90 80 176 79q45 0 121 -45q57 -35 116 -34q83 0 185 86l-45 -154q-80 -84 -174 -84q-41 0 -123 41q-76 39 -119 39q-86 0 -186 -88z" />
<glyph unicode="&#xe4;" d="M39 332q0 119 45 241.5t126 226t212 169t285 65.5q180 0 331 -71l-184 -678q-37 -135 -37 -211q0 -35 6 -74h-172q-4 41 -4 59q0 39 4 68l-139 -129q-63 -18 -139 -18q-145 0 -239.5 86t-94.5 266zM217 336q0 -117 58.5 -176.5t160.5 -59.5q121 0 217 66l197 715 q-72 31 -162 30q-174 0 -299 -137q-78 -84 -125 -203.5t-47 -234.5zM475 1331q0 43 31 76t76 33t76.5 -31t31.5 -78t-31.5 -77.5t-76.5 -30.5t-76 31.5t-31 76.5zM803 1331q0 43 30.5 76t75.5 33t77 -31t32 -78t-32 -77.5t-77 -30.5t-75.5 31.5t-30.5 76.5z" />
<glyph unicode="&#xe5;" d="M39 332q0 119 45 241.5t126 226t212 169t285 65.5q180 0 331 -71l-184 -678q-37 -135 -37 -211q0 -35 6 -74h-172q-4 41 -4 59q0 39 4 68l-139 -129q-63 -18 -139 -18q-145 0 -239.5 86t-94.5 266zM217 336q0 -117 58.5 -176.5t160.5 -59.5q121 0 217 66l197 715 q-72 31 -162 30q-174 0 -299 -137q-78 -84 -125 -203.5t-47 -234.5zM543 1356q0 88 59.5 146.5t147.5 58.5q90 0 149 -58.5t59 -146.5q0 -90 -59 -148.5t-149 -58.5q-92 0 -149.5 58.5t-57.5 148.5zM647 1356q0 -47 29 -77t74 -30t73.5 30t28.5 77t-28.5 75.5t-73.5 28.5 q-43 0 -73 -30.5t-30 -73.5z" />
<glyph unicode="&#xe6;" horiz-adv-x="1662" d="M47 338q0 150 67.5 290t182.5 234q129 106 283.5 139t369.5 33q61 0 92 -2l-24 -90q104 92 278 92q160 0 246 -94t86 -256q0 -66 -20 -145h-688q-23 -76 -23 -142q0 -143 86 -220t219 -76.5t291 55.5l-166 -164q-57 -14 -149 -15q-182 0 -268.5 53.5t-141.5 157.5 l-215 -188q-96 -20 -154 -20q-111 0 -186.5 38.5t-108 101t-45 114t-12.5 104.5zM227 352q0 -119 56.5 -181t150.5 -62q76 0 168 40.5t148 81.5q-23 72 -23 131q0 85 27 177l98 360q-57 4 -80 4q-143 0 -254.5 -58.5t-171 -148.5t-89.5 -178t-30 -166zM956 653h504 q4 37 4 58q0 66 -21.5 111.5t-56 64t-62.5 26t-54 7.5q-111 0 -197 -78t-117 -189z" />
<glyph unicode="&#xe7;" horiz-adv-x="854" d="M57 418q0 188 105 356q170 260 465 260q141 0 282 -67l-43 -150q-100 94 -239 94q-178 0 -284.5 -154.5t-106.5 -336.5q0 -88 30.5 -152.5t68.5 -95.5t93 -48.5t83 -19.5t56 -2q78 0 240 45l-164 -155q-45 -12 -127 -15l-53 -92q123 -39 123 -174q0 -104 -99.5 -172.5 t-285.5 -77.5l43 131q94 8 141 41t47 80q0 43 -32.5 71t-90.5 28l103 174q-174 25 -264.5 143.5t-90.5 288.5z" />
<glyph unicode="&#xe8;" d="M61 418q0 283 201 473q150 143 369 143q172 0 264 -98t92 -256q0 -55 -16 -137h-717q-14 -39 -14 -119q0 -123 73 -215q84 -106 273 -107q35 0 63.5 2t64.5 11.5t48 12.5t61.5 19.5t59.5 18.5l-166 -168q-98 -18 -185 -18q-119 0 -209 34.5t-138 82.5t-77.5 113.5 t-38 114t-8.5 93.5zM289 655h534v41q0 90 -48 156t-164.5 66t-206.5 -79.5t-115 -183.5zM393 1419l39 174l383 -313l-35 -143z" />
<glyph unicode="&#xe9;" d="M61 418q0 283 201 473q150 143 369 143q172 0 264 -98t92 -256q0 -55 -16 -137h-717q-14 -39 -14 -119q0 -123 73 -215q84 -106 273 -107q35 0 63.5 2t64.5 11.5t48 12.5t61.5 19.5t59.5 18.5l-166 -168q-98 -18 -185 -18q-119 0 -209 34.5t-138 82.5t-77.5 113.5 t-38 114t-8.5 93.5zM289 655h534v41q0 90 -48 156t-164.5 66t-206.5 -79.5t-115 -183.5zM512 1137l45 172l436 262l-45 -203z" />
<glyph unicode="&#xea;" d="M61 418q0 283 201 473q150 143 369 143q172 0 264 -98t92 -256q0 -55 -16 -137h-717q-14 -39 -14 -119q0 -123 73 -215q84 -106 273 -107q35 0 63.5 2t64.5 11.5t48 12.5t61.5 19.5t59.5 18.5l-166 -168q-98 -18 -185 -18q-119 0 -209 34.5t-138 82.5t-77.5 113.5 t-38 114t-8.5 93.5zM289 655h534v41q0 90 -48 156t-164.5 66t-206.5 -79.5t-115 -183.5zM358 1137l48 172l319 247l221 -276l-41 -145l-209 231z" />
<glyph unicode="&#xeb;" d="M61 418q0 283 201 473q150 143 369 143q172 0 264 -98t92 -256q0 -55 -16 -137h-717q-14 -39 -14 -119q0 -123 73 -215q84 -106 273 -107q35 0 63.5 2t64.5 11.5t48 12.5t61.5 19.5t59.5 18.5l-166 -168q-98 -18 -185 -18q-119 0 -209 34.5t-138 82.5t-77.5 113.5 t-38 114t-8.5 93.5zM289 655h534v41q0 90 -48 156t-164.5 66t-206.5 -79.5t-115 -183.5zM434 1331q0 43 31 76t76 33t76.5 -31t31.5 -78t-31.5 -77.5t-76.5 -30.5t-76 31.5t-31 76.5zM762 1331q0 43 30.5 76t75.5 33t77 -31t32 -78t-32 -77.5t-77 -30.5t-75.5 31.5 t-30.5 76.5z" />
<glyph unicode="&#xec;" horiz-adv-x="382" d="M-29 0l273 1012h164l-273 -1012h-164zM92 1419l39 174l383 -313l-35 -143z" />
<glyph unicode="&#xed;" horiz-adv-x="382" d="M-29 0l273 1012h164l-273 -1012h-164zM193 1137l45 172l436 262l-45 -203z" />
<glyph unicode="&#xee;" horiz-adv-x="382" d="M-29 0l273 1012h164l-273 -1012h-164zM74 1137l47 172l319 247l222 -276l-41 -145l-209 231z" />
<glyph unicode="&#xef;" horiz-adv-x="382" d="M-29 0l273 1012h164l-273 -1012h-164zM109 1331q0 43 30.5 76t75.5 33t77 -31t32 -78t-32 -77.5t-77 -30.5t-75.5 31.5t-30.5 76.5zM436 1331q0 43 31 76t76 33t76.5 -31t31.5 -78t-31.5 -77.5t-76.5 -30.5t-76 31.5t-31 76.5z" />
<glyph unicode="&#xf0;" horiz-adv-x="1067" d="M55 412q0 158 78 309q78 150 202 231.5t251 81.5q176 0 286 -141q-16 182 -65 295l-328 -78l-43 113l318 75q-74 111 -95 136l150 55q70 -70 106 -152l170 41l39 -116l-157 -37q76 -188 75 -424q0 -268 -93 -469t-247 -291q-104 -61 -241 -61q-63 0 -126 18t-129.5 61 t-108.5 134.5t-42 218.5zM227 399q0 -152 69 -225.5t169 -73.5q160 0 267.5 162t107.5 361q0 150 -70 221t-168 71q-88 0 -170 -61q-100 -74 -152.5 -208t-52.5 -247z" />
<glyph unicode="&#xf1;" d="M-27 0l271 1012h168l-35 -133l137 133q80 23 156 22q86 0 148.5 -26.5t92 -69.5t43 -85t13.5 -83q0 -70 -29 -170l-160 -600h-162l152 575q31 123 31 162q0 84 -57.5 126t-143.5 42q-123 0 -231 -65l-226 -840h-168zM375 1186l49 160q90 80 176 79q45 0 121 -45 q57 -35 117 -34q82 0 184 86l-45 -154q-80 -84 -174 -84q-41 0 -123 41q-76 39 -119 39q-86 0 -186 -88z" />
<glyph unicode="&#xf2;" horiz-adv-x="1067" d="M55 410q0 145 62.5 285.5t194.5 239.5t300 99q190 0 294 -116.5t104 -309.5q0 -102 -35 -208.5t-99.5 -202t-174 -156.5t-242.5 -61q-88 0 -160 26.5t-116 69.5t-73.5 100t-42 114.5t-12.5 119.5zM227 395q0 -66 17.5 -126t74 -113.5t144.5 -53.5q168 0 272.5 166.5 t104.5 356.5q0 154 -73 222t-165 68q-154 0 -264.5 -160.5t-110.5 -359.5zM393 1419l39 174l383 -313l-35 -143z" />
<glyph unicode="&#xf3;" horiz-adv-x="1067" d="M55 410q0 145 62.5 285.5t194.5 239.5t300 99q190 0 294 -116.5t104 -309.5q0 -102 -35 -208.5t-99.5 -202t-174 -156.5t-242.5 -61q-88 0 -160 26.5t-116 69.5t-73.5 100t-42 114.5t-12.5 119.5zM227 395q0 -66 17.5 -126t74 -113.5t144.5 -53.5q168 0 272.5 166.5 t104.5 356.5q0 154 -73 222t-165 68q-154 0 -264.5 -160.5t-110.5 -359.5zM494 1137l45 172l436 262l-45 -203z" />
<glyph unicode="&#xf4;" horiz-adv-x="1067" d="M55 410q0 145 62.5 285.5t194.5 239.5t300 99q190 0 294 -116.5t104 -309.5q0 -102 -35 -208.5t-99.5 -202t-174 -156.5t-242.5 -61q-88 0 -160 26.5t-116 69.5t-73.5 100t-42 114.5t-12.5 119.5zM227 395q0 -66 17.5 -126t74 -113.5t144.5 -53.5q168 0 272.5 166.5 t104.5 356.5q0 154 -73 222t-165 68q-154 0 -264.5 -160.5t-110.5 -359.5zM365 1137l47 172l319 247l221 -276l-41 -145l-209 231z" />
<glyph unicode="&#xf5;" horiz-adv-x="1067" d="M55 410q0 145 62.5 285.5t194.5 239.5t300 99q190 0 294 -116.5t104 -309.5q0 -102 -35 -208.5t-99.5 -202t-174 -156.5t-242.5 -61q-88 0 -160 26.5t-116 69.5t-73.5 100t-42 114.5t-12.5 119.5zM227 395q0 -66 17.5 -126t74 -113.5t144.5 -53.5q168 0 272.5 166.5 t104.5 356.5q0 154 -73 222t-165 68q-154 0 -264.5 -160.5t-110.5 -359.5zM350 1186l49 160q90 80 176 79q45 0 121 -45q57 -35 117 -34q82 0 184 86l-45 -154q-80 -84 -174 -84q-41 0 -123 41q-76 39 -118 39q-86 0 -187 -88z" />
<glyph unicode="&#xf6;" horiz-adv-x="1067" d="M55 410q0 145 62.5 285.5t194.5 239.5t300 99q190 0 294 -116.5t104 -309.5q0 -102 -35 -208.5t-99.5 -202t-174 -156.5t-242.5 -61q-88 0 -160 26.5t-116 69.5t-73.5 100t-42 114.5t-12.5 119.5zM227 395q0 -66 17.5 -126t74 -113.5t144.5 -53.5q168 0 272.5 166.5 t104.5 356.5q0 154 -73 222t-165 68q-154 0 -264.5 -160.5t-110.5 -359.5zM434 1331q0 43 31 76t76 33t76.5 -31t31.5 -78t-31.5 -77.5t-76.5 -30.5t-76 31.5t-31 76.5zM762 1331q0 43 30.5 76t75.5 33t77 -31t32 -78t-32 -77.5t-77 -30.5t-75.5 31.5t-30.5 76.5z" />
<glyph unicode="&#xf7;" horiz-adv-x="1505" d="M176 532l43 160h1157l-43 -160h-1157zM569 279q0 51 33 84.5t82 33.5q47 0 81 -33.5t34 -83t-34 -83t-83 -33.5q-47 0 -80 33.5t-33 81.5zM739 942q0 51 33 85t82 34q47 0 81 -35t34 -82q0 -49 -34 -84t-83 -35q-47 0 -80 34t-33 83z" />
<glyph unicode="&#xf8;" horiz-adv-x="1067" d="M-61 90l151 127q-37 90 -37 186q0 236 159 433.5t398 197.5q197 0 303 -129l121 99l74 -91l-133 -112q35 -100 35 -187q0 -248 -157 -441t-404 -193q-195 0 -297 133l-138 -113zM221 395q0 -28 6 -65l574 481q-63 111 -201 111q-113 0 -203 -86t-133 -205t-43 -236z M268 209q6 -12 17.5 -30.5t63.5 -50.5t120 -32q96 0 172 54.5t118 138.5t62.5 173t20.5 173q0 37 -2 55z" />
<glyph unicode="&#xf9;" d="M57 254q0 66 31 174l156 584h166l-154 -561q-31 -119 -31 -170q0 -82 54.5 -128.5t140.5 -46.5q92 0 237 62l226 844h166l-271 -1012h-168l35 125l-133 -125q-86 -20 -143 -20q-205 0 -279 139q-33 63 -33 135zM391 1419l39 174l383 -313l-35 -143z" />
<glyph unicode="&#xfa;" d="M57 254q0 66 31 174l156 584h166l-154 -561q-31 -119 -31 -170q0 -82 54.5 -128.5t140.5 -46.5q92 0 237 62l226 844h166l-271 -1012h-168l35 125l-133 -125q-86 -20 -143 -20q-205 0 -279 139q-33 63 -33 135zM532 1137l46 172l436 262l-45 -203z" />
<glyph unicode="&#xfb;" d="M57 254q0 66 31 174l156 584h166l-154 -561q-31 -119 -31 -170q0 -82 54.5 -128.5t140.5 -46.5q92 0 237 62l226 844h166l-271 -1012h-168l35 125l-133 -125q-86 -20 -143 -20q-205 0 -279 139q-33 63 -33 135zM389 1137l47 172l320 247l221 -276l-41 -145l-209 231z" />
<glyph unicode="&#xfc;" d="M57 254q0 66 31 174l156 584h166l-154 -561q-31 -119 -31 -170q0 -82 54.5 -128.5t140.5 -46.5q92 0 237 62l226 844h166l-271 -1012h-168l35 125l-133 -125q-86 -20 -143 -20q-205 0 -279 139q-33 63 -33 135zM428 1331q0 43 30.5 76t76 33t77 -31t31.5 -78t-31.5 -77.5 t-77 -30.5t-76 31.5t-30.5 76.5zM756 1331q0 43 30.5 76t75.5 33t77 -31t32 -78t-32 -77.5t-77 -30.5t-75.5 31.5t-30.5 76.5z" />
<glyph unicode="&#xfd;" horiz-adv-x="937" d="M-176 -412l33 125q20 -2 34 -2q53 0 99.5 19.5t84.5 57.5t61.5 68.5t53.5 80.5l46 75l-113 1000h162l84 -828l512 828h176l-760 -1172q-86 -135 -180 -195.5t-219 -60.5q-20 0 -74 4zM489 1137l46 172l436 262l-45 -203z" />
<glyph unicode="&#xfe;" d="M-143 -422l505 1868h164l-149 -559l137 127q82 20 135 20q164 0 251 -107.5t87 -264.5q0 -109 -44 -226t-125 -220t-214 -169.5t-293 -66.5q-31 0 -74.5 5t-72.5 9l-27 4l-114 -420h-166zM174 127l19 -4q20 -6 58 -13.5t73 -7.5q205 0 348 175.5t143 373.5 q0 141 -71.5 198.5t-159.5 57.5q-98 0 -217 -59z" />
<glyph unicode="&#xff;" horiz-adv-x="937" d="M-176 -412l33 125q20 -2 34 -2q53 0 99.5 19.5t84.5 57.5t61.5 68.5t53.5 80.5l46 75l-113 1000h162l84 -828l512 828h176l-760 -1172q-86 -135 -180 -195.5t-219 -60.5q-20 0 -74 4zM367 1331q0 43 30.5 76t75.5 33t77 -31t32 -78t-32 -77.5t-77 -30.5t-75.5 31.5 t-30.5 76.5zM694 1331q0 43 31 76t76 33t76.5 -31t31.5 -78t-31.5 -77.5t-76.5 -30.5t-76 31.5t-31 76.5z" />
<glyph unicode="&#x152;" horiz-adv-x="2004" d="M137 633q0 215 105.5 401.5t287.5 304.5q209 135 494 136q104 0 313 -29h795l-39 -137h-616l-127 -482h538l-37 -137h-538l-150 -551h735l-137 -139h-760q-98 -27 -200 -27q-279 0 -459 162q-100 88 -152.5 222.5t-52.5 275.5zM332 633q0 -221 132 -372.5t349 -151.5 q86 -1 170 24l307 1147q-137 61 -299 61q-223 0 -387 -133q-59 -49 -112.5 -111.5t-106.5 -191.5t-53 -272z" />
<glyph unicode="&#x153;" horiz-adv-x="1748" d="M59 389q0 174 88 340q23 43 52.5 83t85 96.5t140.5 91t183 34.5q135 0 228.5 -60.5t115.5 -176.5q127 238 420 237q31 0 60.5 -3t85 -23.5t95.5 -54t70.5 -104.5t30.5 -167q0 -55 -18 -141h-692q-14 -72 -15 -115q0 -25 3 -51.5t21.5 -79.5t50.5 -92t98.5 -70t156.5 -31 q135 1 262 56l-168 -168q-45 -10 -145 -10q-45 0 -89 6t-112 28.5t-118 80t-70 143.5q-47 -98 -151.5 -178t-276.5 -80t-282 109.5t-110 299.5zM238 373q0 -143 72.5 -207t160.5 -64q154 0 257 163t103 368q0 117 -59 198.5t-169.5 81.5t-198 -88t-127 -208.5t-39.5 -243.5z M1040 657h506q4 39 4 68q0 86 -54 139.5t-144 53.5q-59 0 -111.5 -23t-84.5 -51.5t-58.5 -69.5t-38 -65.5t-19.5 -51.5z" />
<glyph unicode="&#x178;" horiz-adv-x="1236" d="M242 1446h182l250 -739l626 739h205l-786 -909l-139 -537h-177l148 559zM610 1724q0 41 29 71t74 30q43 0 73.5 -29t30.5 -72t-30.5 -71.5t-73.5 -28.5t-73 29.5t-30 70.5zM987 1724q0 41 28.5 71t74.5 30q43 0 73.5 -29t30.5 -72t-30.5 -71.5t-73.5 -28.5t-73 29.5 t-30 70.5z" />
<glyph unicode="&#x2c6;" horiz-adv-x="555" d="M-18 1137l47 172l319 247l221 -276l-41 -145l-209 231z" />
<glyph unicode="&#x2dc;" horiz-adv-x="555" d="M-47 1186l49 160q90 80 176 79q45 0 121 -45q57 -35 117 -34q82 0 184 86l-45 -154q-80 -84 -174 -84q-41 0 -123 41q-76 39 -119 39q-86 0 -186 -88z" />
<glyph unicode="&#x2000;" horiz-adv-x="977" />
<glyph unicode="&#x2001;" horiz-adv-x="1954" />
<glyph unicode="&#x2002;" horiz-adv-x="977" />
<glyph unicode="&#x2003;" horiz-adv-x="1954" />
<glyph unicode="&#x2004;" horiz-adv-x="651" />
<glyph unicode="&#x2005;" horiz-adv-x="488" />
<glyph unicode="&#x2006;" horiz-adv-x="325" />
<glyph unicode="&#x2007;" horiz-adv-x="325" />
<glyph unicode="&#x2008;" horiz-adv-x="244" />
<glyph unicode="&#x2009;" horiz-adv-x="390" />
<glyph unicode="&#x200a;" horiz-adv-x="108" />
<glyph unicode="&#x2010;" horiz-adv-x="681" d="M-2 471l133 123h557l-129 -123h-561z" />
<glyph unicode="&#x2011;" horiz-adv-x="681" d="M-2 471l133 123h557l-129 -123h-561z" />
<glyph unicode="&#x2012;" horiz-adv-x="681" d="M-2 471l133 123h557l-129 -123h-561z" />
<glyph unicode="&#x2013;" horiz-adv-x="1093" d="M-2 471l133 123h969l-129 -123h-973z" />
<glyph unicode="&#x2014;" horiz-adv-x="1486" d="M-2 471l133 123h1362l-129 -123h-1366z" />
<glyph unicode="&#x2018;" horiz-adv-x="425" d="M195 1079l303 367h129l-258 -367h-174z" />
<glyph unicode="&#x2019;" horiz-adv-x="425" d="M201 1079l260 367h172l-305 -367h-127z" />
<glyph unicode="&#x201a;" horiz-adv-x="425" d="M-145 -209l260 367h172l-305 -367h-127z" />
<glyph unicode="&#x201c;" horiz-adv-x="724" d="M197 1079l303 367h127l-256 -367h-174zM492 1079l305 367h127l-260 -367h-172z" />
<glyph unicode="&#x201d;" horiz-adv-x="724" d="M203 1079l258 367h172l-303 -367h-127zM498 1079l258 367h174l-303 -367h-129z" />
<glyph unicode="&#x201e;" horiz-adv-x="724" d="M-190 -209l260 367h172l-305 -367h-127zM106 -209l256 367h177l-303 -367h-130z" />
<glyph unicode="&#x2022;" horiz-adv-x="681" d="M150 723q0 102 70.5 174t170.5 72q104 0 175 -69t71 -171q0 -109 -67.5 -178.5t-172.5 -69.5q-106 0 -176.5 70t-70.5 172z" />
<glyph unicode="&#x2026;" horiz-adv-x="2048" d="M113 86q0 47 30.5 79t75.5 32t77 -32t32 -77q0 -47 -33 -79t-78 -32t-74.5 31t-29.5 78zM799 86q0 47 30.5 79t75.5 32t77 -32t32 -77q0 -47 -32 -79t-79 -32q-45 0 -74.5 31t-29.5 78zM1481 86q0 47 30.5 79t75.5 32t77 -32t32 -77t-32 -78t-77 -33t-75.5 31t-30.5 78z " />
<glyph unicode="&#x202f;" horiz-adv-x="390" />
<glyph unicode="&#x2039;" horiz-adv-x="425" d="M41 524l252 320h160l-267 -334l138 -307h-138z" />
<glyph unicode="&#x203a;" horiz-adv-x="425" d="M-23 203l267 334l-138 307h138l145 -322l-252 -319h-160z" />
<glyph unicode="&#x205f;" horiz-adv-x="488" />
<glyph unicode="&#x20ac;" horiz-adv-x="1449" d="M188 510l31 123h139q12 100 27 164h-143l32 123h146q78 246 252 379t438 133q196 0 317 -68l-38 -141q-115 76 -285 75q-375 0 -508 -378h571l-32 -123h-574q-20 -82 -24 -164h561l-33 -123h-535q0 -199 110 -301.5t298 -102.5q201 0 401 97l-153 -185q-133 -51 -256 -51 q-283 0 -430.5 148.5t-147.5 394.5h-164z" />
<glyph unicode="&#x2122;" horiz-adv-x="1513" d="M293 1343l26 103h525l-29 -103h-197l-153 -577h-127l154 577h-199zM711 768l233 678h160l55 -385l254 385h158l-121 -678h-123l98 510l-327 -510h-15l-73 518l-179 -518h-120z" />
<glyph unicode="&#xe000;" horiz-adv-x="1013" d="M0 0v1014h1014v-1014h-1014z" />
<glyph unicode="&#xfb01;" horiz-adv-x="894" d="M8 0l240 889h-119l119 123h35l49 182q76 276 332 276q90 0 149 -22l-37 -131q-53 27 -108 26q-59 0 -101 -32q-33 -27 -47 -54.5t-33 -99.5l-38 -145h188l-35 -123h-186l-238 -889h-170zM483 0l273 1012h164l-273 -1012h-164zM844 1384.5q0 38.5 27.5 65.5t68.5 27 q37 0 63.5 -27t26.5 -64q0 -41 -26.5 -68.5t-67.5 -27.5q-39 0 -65.5 28t-26.5 66.5z" />
<glyph unicode="&#xfb02;" horiz-adv-x="894" d="M8 0l240 889h-119l119 123h35l49 182q76 276 332 276q90 0 149 -22l-37 -131q-53 27 -108 26q-59 0 -101 -32q-33 -27 -47 -54.5t-33 -99.5l-38 -145h188l-35 -123h-186l-238 -889h-170zM485 0l389 1446h162l-381 -1446h-170z" />
</font>
</defs>
</svg>
