<?xml version="1.0" standalone="no"?>
<!DOCTYPE svg PUBLIC "-//W3C//DTD SVG 1.1//EN" "http://www.w3.org/Graphics/SVG/1.1/DTD/svg11.dtd" >
<svg xmlns="http://www.w3.org/2000/svg" xmlns:xlink="http://www.w3.org/1999/xlink" version="1.1">
<metadata></metadata>
<defs>
<font id="delta_jaegerbook" horiz-adv-x="1150" >
<font-face units-per-em="2048" ascent="1638" descent="-410" />
<missing-glyph horiz-adv-x="598" />
<glyph unicode="&#xfb01;" horiz-adv-x="1067" d="M23 840l106 174h25v90q0 51 6 107.5t37 111.5q27 49 62.5 79t75.5 46t80 21.5t74 5.5q47 0 78 -5.5t62 -13.5v-184q-16 8 -40 15t-54 7q-88 0 -117 -47t-29 -121v-112h199v-174h-199v-840h-235v840h-131zM705 1352q0 53 37.5 88t88.5 35q53 0 91.5 -35t38.5 -88 q0 -57 -39 -90t-91 -33q-51 0 -88.5 34.5t-37.5 88.5zM713 0v1014h239v-1014h-239z" />
<glyph unicode="&#xfb02;" horiz-adv-x="1067" d="M23 840l106 174h25v90q0 51 6 107.5t37 111.5q27 49 62.5 79t75.5 46t80 21.5t74 5.5q47 0 78 -5.5t62 -13.5v-184q-16 8 -40 15t-54 7q-88 0 -117 -47t-29 -121v-112h199v-174h-199v-840h-235v840h-131zM713 0v1446h239v-1446h-239z" />
<glyph horiz-adv-x="0" />
<glyph unicode="&#xd;" horiz-adv-x="598" />
<glyph unicode=" "  horiz-adv-x="598" />
<glyph unicode="&#x09;" horiz-adv-x="598" />
<glyph unicode="&#xa0;" horiz-adv-x="598" />
<glyph unicode="!" horiz-adv-x="512" d="M113 119q0 53 37.5 95t97.5 42q59 0 97 -40t38 -97q0 -59 -40 -98t-95 -39q-59 0 -97 42t-38 95zM123 1448h256l-25 -952l-204 -121z" />
<glyph unicode="&#x22;" horiz-adv-x="811" d="M106 1427q0 53 35 80t76 27q31 0 56.5 -14.5t37.5 -40.5q8 -16 9.5 -31.5t-1.5 -32.5l-83 -526h-48l-79 502q-2 14 -2.5 21t-0.5 15zM489 1427q0 53 36 80t77 27q29 0 54.5 -14.5t37.5 -40.5q8 -16 9.5 -31.5t-1.5 -32.5l-84 -526h-47l-79 502q-2 14 -2.5 21t-0.5 15z " />
<glyph unicode="#" horiz-adv-x="1366" d="M84 469v158h307l33 221h-289v158h309l64 438h164l-64 -438h226l65 438h160l-62 -438h283v-158h-303l-33 -221h285v-158h-307l-68 -469h-162l68 469h-228l-67 -469h-166l72 469h-287zM553 627h229l31 221h-225z" />
<glyph unicode="$" horiz-adv-x="1024" d="M88 49v242q78 -55 167 -91t187 -36q70 0 118 20.5t77 53t42 69.5t13 72q0 49 -17.5 84t-45 59.5t-64.5 42t-73 33.5l-97 41q-51 23 -102 51.5t-94 75.5q-53 53 -79 118.5t-26 137.5t24.5 137.5t69.5 118.5q47 53 103.5 85t130.5 50v250h207v-238q51 -4 92 -12t71.5 -18.5 t54 -20.5t44.5 -18v-238q-66 53 -141.5 86t-159.5 33q-61 0 -105.5 -16.5t-73 -43t-43 -60.5t-14.5 -66q0 -43 17.5 -76t43 -57.5t56.5 -42t55 -29.5l123 -55q43 -20 96.5 -50t101.5 -76.5t79.5 -112t31.5 -157.5q0 -84 -26.5 -149.5t-67.5 -112.5q-61 -72 -127.5 -101.5 t-107.5 -41.5v-264h-207v247q-47 2 -136 12.5t-198 63.5z" />
<glyph unicode="%" horiz-adv-x="1705" d="M23 946q0 39 3 85t13 93t28.5 93.5t49.5 85.5q90 113 248 112q109 0 175 -46t102 -116.5t48 -152.5t12 -154q0 -41 -7 -112.5t-29 -135.5q-35 -102 -112 -161.5t-194 -59.5q-84 0 -141 27.5t-95 72t-58.5 98.5t-29.5 106.5t-11 96.5t-2 68zM205 940q0 -18 1 -47t5 -61.5 t10 -65.5t17 -59q2 -6 10 -22.5t23.5 -32t36.5 -28t52 -12.5t53.5 12.5t37 29t23.5 34t13 29.5q10 27 16.5 59.5t9.5 65t4 60.5t1 46q0 59 -6 115.5t-25 110.5q-16 49 -46.5 78.5t-78.5 29.5q-35 0 -57 -14.5t-37.5 -34t-23.5 -38.5t-11 -32q-10 -31 -15 -64.5t-8 -64 t-4 -56.5t-1 -38zM469 0l606 1399h162l-606 -1399h-162zM1004 451q0 117 22.5 205.5t71.5 152.5q41 51 101.5 82t146.5 31q100 0 166.5 -42t104.5 -108.5t53.5 -150.5t15.5 -168q0 -39 -7.5 -112t-29.5 -138q-33 -96 -108 -157.5t-198 -61.5q-82 0 -139 26.5t-95 69.5 t-59.5 95t-31.5 104.5t-12 97.5t-2 74zM1186 444q0 -20 1 -48.5t5 -61.5t11 -64.5t18 -56.5q2 -6 9 -22.5t21.5 -32t36.5 -27.5t55 -12q31 0 53.5 11t37 28.5t23.5 35t13 29.5q10 27 16.5 59.5t9.5 64.5t4 60.5t1 47.5q0 78 -13 156.5t-44 123.5q-37 53 -101 53 q-35 0 -57 -15t-37.5 -34.5t-23.5 -40t-11 -30.5q-10 -29 -15 -62t-8 -63.5t-4 -57t-1 -41.5z" />
<glyph unicode="&#x26;" horiz-adv-x="1449" d="M96 408q0 78 24.5 147.5t69.5 124.5q55 66 119 98.5t111 52.5q-14 16 -31.5 43t-34 62t-28 77t-11.5 91q0 80 33 149.5t89.5 119.5t135 79t170.5 29q86 0 159 -27t127 -73t84 -109.5t30 -136.5q0 -59 -20.5 -119t-61.5 -109q-53 -63 -120 -96t-126 -55l651 -621 l-166 -176l-282 264l-78 -192q-82 -29 -166 -46.5t-170 -17.5q-113 0 -206 33t-160.5 92.5t-104.5 139t-37 176.5zM362 438q0 -43 17.5 -91t54.5 -88t96.5 -65.5t145.5 -25.5q80 0 163 21.5t154 60.5l-444 428q-31 -10 -64.5 -28.5t-60.5 -48.5t-44.5 -71t-17.5 -92z M571 1116q0 -61 30 -116.5t73 -100.5q72 18 117 47t71.5 60.5t35.5 65.5t9 63q0 78 -47 123t-115 45q-80 0 -127 -56.5t-47 -130.5z" />
<glyph unicode="'" horiz-adv-x="425" d="M106 1427q0 53 36 80t77 27q29 0 54.5 -14.5t37.5 -40.5q8 -16 9.5 -31.5t-1.5 -32.5l-83 -526h-48l-79 502q-2 14 -2.5 21t-0.5 15z" />
<glyph unicode="(" horiz-adv-x="598" d="M74 719q0 129 35.5 257t101.5 245q53 96 101 145t83 80h203q-25 -29 -72 -90.5t-93 -152.5t-80 -212t-34 -270q0 -104 25 -229t92 -256q41 -84 82 -137.5t80 -98.5h-203q-39 35 -84 84t-98 139q-78 129 -108.5 255t-30.5 241z" />
<glyph unicode=")" horiz-adv-x="598" d="M0 0q25 31 72 91.5t93 152.5t80 213t34 270q0 127 -29 249t-88 236q-43 86 -88 143.5t-74 90.5h203q39 -35 84 -84t98 -139q66 -113 102.5 -238t36.5 -258q0 -125 -34.5 -254t-102.5 -248q-53 -92 -100 -142t-84 -83h-203z" />
<glyph unicode="*" horiz-adv-x="768" d="M43 1145l47 141l219 -65v225h152v-225l215 73l51 -139l-217 -78l131 -182l-119 -90l-135 182l-131 -182l-123 90l131 182z" />
<glyph unicode="+" horiz-adv-x="1366" d="M88 514v164h510v510h164v-510h514v-164h-514v-514h-164v514h-510z" />
<glyph unicode="," horiz-adv-x="425" d="M-33 -272l191 493h250l-277 -493h-164z" />
<glyph unicode="-" horiz-adv-x="681" d="M8 451l121 167h545l-119 -167h-547z" />
<glyph unicode="." horiz-adv-x="425" d="M78 119q0 53 38 95t97 42t97 -40t38 -97q0 -59 -39 -98t-96 -39q-59 0 -97 40.5t-38 96.5z" />
<glyph unicode="/" horiz-adv-x="724" d="M0 0l500 1446h225l-496 -1446h-229z" />
<glyph unicode="0" d="M51 696q0 100 11.5 197.5t46.5 191.5q59 166 181 252t290 86q100 0 178 -27.5t135 -75.5t96 -113.5t64 -139.5q27 -90 38 -192.5t11 -174.5q0 -31 -2 -75.5t-8.5 -98t-16.5 -110t-28 -105.5q-25 -68 -65 -129t-98.5 -107t-135 -73t-173.5 -27q-129 0 -217 42t-146 109 t-91 148.5t-48.5 161.5t-18.5 149.5t-3 110.5zM322 690q0 -84 9 -176t35.5 -169t77 -127t131.5 -50q53 0 90 20.5t61 48t36 56.5t18 43q14 41 24.5 91t15.5 100.5t7 95t2 79.5q0 45 -2 88.5t-8 86.5q-6 61 -20.5 124.5t-42 114.5t-70.5 84t-108 33q-90 0 -140.5 -61.5 t-77 -148.5t-32.5 -179t-6 -154z" />
<glyph unicode="1" d="M258 979v207l475 244v-1430h-258v1096z" />
<glyph unicode="2" d="M113 0v190l426 482q45 51 77.5 92t54 78t33 72.5t11.5 76.5t-13.5 82t-42 73t-73.5 51.5t-107 19.5q-55 0 -103 -15.5t-90 -42t-78 -59.5t-67 -66v262q29 18 68 41t88 42.5t107.5 31.5t130.5 12q111 0 195.5 -32.5t142 -89t87 -129t29.5 -152.5q0 -66 -15.5 -119t-41 -99 t-59 -88t-68.5 -83l-377 -434h643l-135 -197h-823z" />
<glyph unicode="3" d="M115 59v246q23 -16 48 -34.5t70 -39.5q51 -25 110.5 -39t119.5 -14q68 0 118 20.5t82.5 53.5t48 75t15.5 83q0 70 -30.5 114.5t-65.5 67.5q-14 10 -36 21.5t-54.5 20.5t-79.5 14t-113 5h-29.5t-31.5 -2l127 185q68 0 116 19t77.5 49t43 67t13.5 69q0 76 -54.5 127.5 t-146.5 51.5q-61 0 -113.5 -20.5t-94.5 -48.5t-72.5 -55.5t-47.5 -43.5v252q88 55 184.5 87.5t198.5 32.5q92 0 168 -27.5t129 -74.5t82 -110.5t29 -137.5q0 -76 -29 -137.5t-74 -101.5q-33 -29 -63.5 -44.5t-59.5 -27.5q39 -10 100.5 -37t117.5 -94q41 -51 61 -110.5 t20 -121.5q0 -90 -35.5 -166.5t-102 -134t-160 -90.5t-205.5 -33q-84 0 -187.5 21.5t-193.5 62.5z" />
<glyph unicode="4" d="M2 352v66l602 979h287v-850h213l-135 -195h-78v-352h-248v352h-641zM319 547h326l4 577z" />
<glyph unicode="5" d="M111 59v244q78 -59 166 -94t186 -35q74 0 129 22.5t92 59.5t55.5 85t18.5 99q0 66 -29 127.5t-100 106.5q-53 35 -134 52t-178 17q-45 0 -89 -2t-78 -6l108 664h721v-199h-504l-49 -289q68 0 154 -8t170 -43q94 -37 149 -95t85 -118.5t38 -116t8 -88.5q0 -92 -34.5 -176 t-103.5 -148.5t-170 -103.5t-235 -39q-98 0 -192 21.5t-184 62.5z" />
<glyph unicode="6" d="M92 514q0 139 40 270t116 248q55 86 116.5 153.5t113.5 116t87 73t37 24.5h373q-53 -27 -103.5 -60.5t-93.5 -67.5t-75.5 -62.5t-49.5 -45.5q-72 -72 -131 -155.5t-98 -180.5q51 31 105.5 55.5t136.5 24.5q90 0 166.5 -33.5t134 -93t89 -140.5t31.5 -175 q0 -90 -30.5 -177t-92 -157t-154.5 -113t-218 -43q-115 0 -208 39t-157.5 111t-99.5 170t-35 219zM356 446q0 -123 61.5 -200.5t168.5 -77.5q109 0 173 81t64 214q0 135 -68.5 200.5t-160.5 65.5q-59 0 -103.5 -22.5t-74 -60.5t-45 -90t-15.5 -110z" />
<glyph unicode="7" d="M150 1206v193h978l-641 -1399h-276l559 1206h-620z" />
<glyph unicode="8" d="M72 387q0 90 41 172q25 49 56.5 82t63 52.5t61.5 30.5t50 17q-106 43 -162.5 119t-56.5 189q0 86 36 155.5t98.5 117.5t144 74.5t174.5 26.5q98 0 180 -27.5t142.5 -76.5t94 -117.5t33.5 -152.5q0 -86 -43 -168t-147 -127l-31 -13q8 -4 16 -5t17 -5q102 -33 170.5 -120 t68.5 -216q0 -82 -32.5 -157.5t-97 -134t-158 -93.5t-216.5 -35q-115 0 -208 32t-158.5 88.5t-101 131t-35.5 160.5zM332 410q0 -55 20.5 -100.5t54 -77t77.5 -49t91 -17.5q104 0 173 67.5t69 176.5q0 53 -18.5 98t-51 79t-77.5 52t-97 18q-53 0 -97 -20.5t-75.5 -54 t-50 -78.5t-18.5 -94zM375 1024q0 -86 57.5 -143.5t145.5 -57.5q80 0 140 54.5t60 152.5q0 49 -17.5 87t-45 63.5t-63.5 38t-74 12.5q-47 0 -85 -17.5t-65 -46t-40 -66.5t-13 -77z" />
<glyph unicode="9" d="M61 934q0 88 30 176t91.5 157.5t154.5 112.5t220 43q115 0 208 -38.5t158.5 -109.5t100.5 -170t35 -218q0 -160 -45 -289t-111 -231q-55 -86 -116.5 -155t-113.5 -116t-88 -72l-36 -24h-375q49 25 97 56.5t91.5 64.5t77 63.5t56.5 51.5q74 72 132 155.5t99 179.5 q-51 -31 -105.5 -55t-138.5 -24q-90 0 -166.5 33.5t-134 92t-89.5 139.5t-32 177zM326 936q0 -68 18 -117t50 -83t74 -50t89 -16q59 0 104.5 22.5t75 61.5t44 90t14.5 108q0 121 -60.5 200t-169.5 79q-111 0 -175 -82t-64 -213z" />
<glyph unicode=":" horiz-adv-x="512" d="M123 119q0 53 38 95t97 42t97 -40t38 -97q0 -59 -39 -98t-96 -39q-59 0 -97 40.5t-38 96.5zM123 889q0 53 38 95t97 42t97 -40t38 -97q0 -59 -39 -98t-96 -39q-59 0 -97 41t-38 96z" />
<glyph unicode=";" horiz-adv-x="512" d="M-41 -272l191 493h249l-276 -493h-164zM145 889q0 53 37 95t101 42q59 0 97 -41t38 -96q0 -59 -39 -98t-96 -39q-59 0 -98.5 42t-39.5 95z" />
<glyph unicode="&#x3c;" horiz-adv-x="1366" d="M0 635v176l1366 641v-178l-1161 -551l1161 -553v-176z" />
<glyph unicode="=" horiz-adv-x="1366" d="M0 332v160h1366v-160h-1366zM0 700v160h1366v-160h-1366z" />
<glyph unicode="&#x3e;" horiz-adv-x="1366" d="M0 -6v176l1159 553l-1159 551v178l1366 -641v-176z" />
<glyph unicode="?" horiz-adv-x="854" d="M78 1178v227q94 41 177 56.5t151 15.5q104 0 187 -31t140.5 -83t88 -123t30.5 -150q0 -63 -23.5 -130t-72.5 -120q-33 -37 -69 -58.5t-70.5 -35t-66.5 -19.5t-58 -10v-207l-234 -135v475q74 4 127 12t107 39q39 23 71.5 63t32.5 113q0 84 -61.5 139.5t-172.5 55.5 q-98 0 -165.5 -32t-118.5 -62zM240 119q0 53 36.5 95t96.5 42q59 0 96 -41t37 -96q0 -59 -39 -98t-94 -39q-59 0 -96 40.5t-37 96.5z" />
<glyph unicode="@" horiz-adv-x="1835" d="M141 479q0 193 71 370t195.5 313t298 217t379.5 81q139 0 252 -43t192 -119.5t122 -186.5t43 -241q0 -141 -40 -272t-106.5 -232.5t-151.5 -162t-175 -60.5q-51 0 -86 21q-31 14 -47.5 34.5t-24.5 42t-10 42t-2 36.5q-16 -23 -38 -47t-57 -53q-41 -35 -90 -54.5 t-108 -19.5t-111.5 25t-91.5 76q-37 49 -51.5 108.5t-14.5 122.5q0 113 35 218.5t94.5 186.5t138.5 130t165 49q47 0 94 -19q70 -29 98.5 -74.5t42.5 -78.5l31 127h139l-65 -307q-10 -41 -13.5 -61.5t-13.5 -61.5q-10 -57 -21.5 -122t-11.5 -106t14.5 -66.5t49.5 -25.5 q43 0 96 48t101 131t80 190.5t32 228.5q0 129 -42 220.5t-112.5 149.5t-161 86t-186.5 28q-168 0 -316.5 -71t-259 -189.5t-175 -276.5t-64.5 -330q0 -170 60.5 -288.5t156.5 -192.5t215 -107.5t236 -33.5q106 0 202.5 23.5t182.5 63.5t161.5 95t139.5 117l67 -84 q-29 -27 -70.5 -65t-109.5 -83q-129 -86 -273.5 -133t-297.5 -47q-131 0 -270.5 40t-254 127t-188.5 226.5t-74 339.5zM651 485q0 -55 11.5 -89t23.5 -52q23 -31 55.5 -49.5t73.5 -18.5q47 0 96.5 30t87.5 79q35 45 56.5 96t33 98.5t15.5 85t4 54.5q0 104 -52 157.5 t-120 53.5q-66 0 -118 -42t-89 -107.5t-57.5 -144.5t-20.5 -151z" />
<glyph unicode="A" horiz-adv-x="1409" d="M0 0l584 1446h262l563 -1446h-293l-133 360h-575l-138 -360h-270zM473 539h447l-195 540q-6 18 -9 30.5t-14 47.5q-10 -35 -14 -47t-8 -27z" />
<glyph unicode="B" horiz-adv-x="1193" d="M121 0v1446h506q82 0 162.5 -18.5t144 -60.5t102.5 -110.5t39 -169.5q0 -68 -20.5 -120t-55 -91.5t-82 -66.5t-102.5 -43q137 -23 226 -113t89 -235q0 -55 -17 -113.5t-54 -113t-95.5 -97.5t-140.5 -67q-61 -18 -116.5 -22.5t-96.5 -4.5h-489zM381 197h111q68 0 100.5 2 t54.5 6q55 8 95 31.5t66 56.5t39 69.5t13 73.5q0 55 -26.5 105.5t-85.5 81.5q-55 31 -124 38t-153 7h-90v-471zM381 692l111 156q33 0 63.5 1t60.5 7q98 20 148.5 77.5t50.5 129.5q0 57 -22.5 93t-58.5 56.5t-82 27.5t-93 7h-178v-555z" />
<glyph unicode="C" horiz-adv-x="1366" d="M63 715q0 156 55.5 295t162 244.5t261 167t353.5 61.5q160 0 262.5 -28t138.5 -42v-248q-23 14 -56.5 35t-81.5 39t-107.5 31.5t-132.5 13.5q-129 0 -233.5 -42t-178.5 -115.5t-115 -175t-41 -220.5q0 -121 41 -224.5t119 -180t190.5 -120.5t257.5 -44q70 0 134.5 9 t119 21.5t93 25.5t59.5 20l-135 -234q-94 -27 -183.5 -34t-144.5 -7q-203 0 -359.5 59.5t-263 162t-161 238.5t-54.5 292z" />
<glyph unicode="D" horiz-adv-x="1449" d="M121 0v1446h487q96 0 201.5 -15.5t216.5 -70.5q94 -47 162.5 -118t113 -153.5t64.5 -174t20 -183.5q0 -96 -21.5 -189t-66.5 -178t-114.5 -157t-165.5 -121q-117 -59 -219.5 -72.5t-196.5 -13.5h-481zM387 201h184q45 0 91.5 4t94.5 16t95 37t94 66q86 74 121 180t35 219 q0 109 -34 209t-112 174q-49 47 -102 73.5t-107.5 40t-106.5 16.5t-99 3h-154v-1038z" />
<glyph unicode="E" horiz-adv-x="1067" d="M121 0v1446h848v-205h-580v-385h500v-205h-500v-444h674l-119 -207h-823z" />
<glyph unicode="F" horiz-adv-x="980" d="M121 0v1448h860v-205h-590v-403h510v-207h-510v-633h-270z" />
<glyph unicode="G" horiz-adv-x="1536" d="M63 717q0 160 58.5 299t167 242.5t264.5 164t350 60.5q117 0 225.5 -20.5t219.5 -57.5v-250q-27 14 -68 35.5t-95.5 42t-120 34t-142.5 13.5q-125 0 -231.5 -41t-183.5 -114.5t-120 -177t-43 -226.5q0 -117 39 -219.5t109.5 -178t172 -119.5t226.5 -44q115 0 181.5 24.5 t98.5 40.5l7 332h-371l121 199h510l-13 -656q-131 -66 -272 -100.5t-289 -34.5q-180 0 -327.5 54.5t-253 153.5t-163 237.5t-57.5 306.5z" />
<glyph unicode="H" horiz-adv-x="1449" d="M121 0v1446h268v-578h674v578h268v-1446h-268v659h-674v-659h-268z" />
<glyph unicode="I" horiz-adv-x="512" d="M121 0v1446h270v-1446h-270z" />
<glyph unicode="J" horiz-adv-x="768" d="M-23 14l115 189q16 -6 46 -14.5t69 -8.5q55 0 90 19.5t55.5 54.5t29.5 82t9 104v1006h268v-1010q0 -72 -6 -133t-37 -123q-45 -86 -144 -145.5t-259 -59.5q-92 0 -150.5 14.5t-85.5 24.5z" />
<glyph unicode="K" horiz-adv-x="1280" d="M121 0v1446h268v-664l518 664h299l-530 -664l635 -782h-324l-598 743v-743h-268z" />
<glyph unicode="L" horiz-adv-x="1067" d="M121 0v1446h270v-1239h686l-119 -207h-837z" />
<glyph unicode="M" horiz-adv-x="1878" d="M74 0l157 1446h275l432 -950l426 950h270l164 -1446h-268l-100 1053l-488 -1053h-29l-483 1059l-100 -1059h-256z" />
<glyph unicode="N" horiz-adv-x="1536" d="M121 0v1446h252l788 -897l-8 897h262v-1446h-94l-942 1044l8 -1044h-266z" />
<glyph unicode="O" horiz-adv-x="1662" d="M63 719q0 154 52.5 292t152 242.5t241.5 167t322 62.5q174 0 316.5 -59.5t244 -162t156 -239.5t54.5 -293t-52.5 -295t-151 -243.5t-239.5 -166t-319 -61.5t-322.5 58.5t-245 160t-155 239.5t-54.5 298zM350 723q0 -115 34 -215t96.5 -175t152.5 -119t205 -44 q117 0 207 48t149 127t90 177.5t31 198.5q0 123 -36 226.5t-100.5 178t-152.5 115.5t-192 41q-106 0 -194.5 -42t-153 -117.5t-100.5 -178t-36 -221.5z" />
<glyph unicode="P" horiz-adv-x="1110" d="M121 0v1446h471q82 0 146.5 -7t131.5 -38q59 -27 104.5 -68t75 -90t45 -102.5t15.5 -106.5q0 -43 -10 -89t-33 -91t-57.5 -88t-85.5 -76q-51 -35 -106.5 -53.5t-110 -27.5t-104.5 -11t-89 -2h-123v-596h-270zM391 625l119 163q39 0 104.5 6.5t122.5 45.5q41 29 67.5 78 t26.5 108t-21.5 101t-56 69t-77.5 39t-88 12h-197v-622z" />
<glyph unicode="Q" horiz-adv-x="1662" d="M63 719q0 152 53.5 290t153 243.5t241.5 168t320 62.5q174 0 316.5 -59.5t243 -161t156 -239.5t55.5 -294q0 -113 -23 -200t-54.5 -151.5t-67.5 -109.5t-62 -75l239 -236l-174 -172l-264 262q-20 -10 -53 -24.5t-78 -27.5t-103.5 -22.5t-127.5 -9.5q-172 0 -314.5 58.5 t-244 160t-157 239.5t-55.5 298zM352 721q0 -113 34 -213t96.5 -175t152.5 -119t205 -44q117 0 205 48t148 126t91 176t31 201q0 125 -37 228.5t-101.5 177t-152.5 114.5t-190 41q-104 0 -192.5 -42t-153 -117.5t-100.5 -178t-36 -223.5z" />
<glyph unicode="R" horiz-adv-x="1280" d="M121 0v1446h475q49 0 99 -3t104 -16q82 -20 139 -60t93 -92t52.5 -110.5t16.5 -113.5q0 -86 -26.5 -149.5t-63.5 -106.5t-76 -69t-64 -40l422 -686h-301l-383 629q-31 -4 -52 -5t-44 -2t-51.5 -1h-73.5v-621h-266zM387 645l115 162q21 -1 43 -1h23q34 1 69 7 q98 18 144 80.5t46 140.5q0 59 -21.5 100.5t-56 67t-81.5 36.5t-99 11h-182v-604z" />
<glyph unicode="S" horiz-adv-x="1110" d="M92 47v250q86 -59 184.5 -96t202.5 -37q76 0 129.5 21.5t87 53t49 71.5t15.5 77q0 53 -21.5 91t-54.5 64.5t-73 44t-76 34.5l-93 36q-66 29 -133 66t-121 100q-29 33 -58.5 92.5t-29.5 147.5q0 82 34 157.5t98.5 134t160.5 93.5t221 35q68 0 126.5 -9.5t103.5 -21.5 t76.5 -24.5t50.5 -20.5v-244q-18 14 -48 35t-72 40t-97.5 33.5t-122.5 14.5q-70 0 -118 -18.5t-77.5 -48t-43 -65.5t-13.5 -69q0 -49 22.5 -84.5t56.5 -63.5t75.5 -47.5t82.5 -35.5l103 -43q63 -29 128.5 -65.5t115.5 -100.5q35 -41 58 -102.5t23 -136.5q0 -92 -36.5 -172 t-107.5 -139.5t-172 -94.5t-228 -35q-70 0 -174.5 15.5t-233.5 66.5z" />
<glyph unicode="T" d="M0 1241v207h1151v-207h-440v-1241h-269v1241h-442z" />
<glyph unicode="U" horiz-adv-x="1492" d="M115 549v897h270v-907q0 -78 18.5 -146.5t61.5 -119t112.5 -80t172.5 -29.5q106 0 175.5 32.5t110.5 88t57.5 128t16.5 150.5v883h268v-899q0 -78 -12 -163t-66 -171q-43 -70 -104 -117t-134 -76.5t-155 -43t-164 -13.5q-156 0 -270.5 40t-187.5 101q-61 51 -95 110.5 t-51.5 118t-20.5 115t-3 101.5z" />
<glyph unicode="V" horiz-adv-x="1409" d="M0 1446h297l416 -1131l428 1131h268l-584 -1446h-250z" />
<glyph unicode="W" horiz-adv-x="1961" d="M0 1446h287l241 -1102l445 1102h31l430 -1102l262 1102h266l-371 -1446h-274l-342 864l-344 -864h-266z" />
<glyph unicode="X" horiz-adv-x="1323" d="M0 0l514 748l-479 698h309l324 -475l327 475h301l-481 -696l508 -750h-309l-352 524l-365 -524h-297z" />
<glyph unicode="Y" horiz-adv-x="1323" d="M0 1446h297l377 -653l373 653h276l-524 -899v-547h-273v547z" />
<glyph unicode="Z" horiz-adv-x="1323" d="M59 0v195l852 1044h-792v207h1128v-201l-846 -1038h928l-121 -207h-1149z" />
<glyph unicode="[" horiz-adv-x="681" d="M158 0v1446h497v-168h-272v-1110h272v-168h-497z" />
<glyph unicode="\" horiz-adv-x="724" d="M0 1446h225l500 -1446h-229z" />
<glyph unicode="]" horiz-adv-x="681" d="M29 0v168h272v1110h-272v168h497v-1446h-497z" />
<glyph unicode="^" horiz-adv-x="1492" d="M291 690l385 756h158l368 -756h-198l-254 531l-263 -531h-196z" />
<glyph unicode="_" horiz-adv-x="1024" d="M-20 -154h1064v-102h-1064v102z" />
<glyph unicode="`" horiz-adv-x="598" d="M86 1288v172l426 -162v-174z" />
<glyph unicode="a" horiz-adv-x="980" d="M41 281q0 115 59.5 186.5t139.5 105.5q59 27 127.5 38.5t138.5 11.5q37 0 62.5 -2.5t66.5 -6.5q0 57 -7 103.5t-31 79t-66 50t-109 17.5q-86 0 -161 -22.5t-140 -48.5l125 213q43 10 109.5 21t138.5 11q27 0 63.5 -2t75.5 -11t78 -28.5t71 -52.5q31 -31 48.5 -65.5 t25.5 -69.5t10 -69.5t2 -67.5v-408q0 -78 1 -122t3 -70.5t5.5 -41t7.5 -30.5h-234q-10 31 -13 68.5t-3 81.5l-115 -158q-29 -8 -54.5 -12.5t-68.5 -4.5q-92 0 -154.5 22.5t-103.5 57.5q-12 10 -29.5 28.5t-33 46.5t-25.5 64.5t-10 86.5zM285 289q0 -27 8 -53.5t28.5 -47 t53.5 -33t80 -12.5q55 0 103 17.5t77 29.5v267q-16 2 -32.5 3t-33.5 1q-72 0 -107.5 -5t-53.5 -12q-66 -20 -94.5 -63t-28.5 -92z" />
<glyph unicode="b" d="M115 84v1362h241v-598l117 170q27 4 74 11t94 7q111 0 196 -39t143 -106.5t89 -159.5t31 -199q0 -102 -32 -201.5t-99.5 -178t-173 -128t-250.5 -49.5q-57 0 -116.5 9.5t-116 25t-107.5 34.5t-90 40zM356 213q27 -16 73 -36.5t124 -20.5q86 0 142.5 32.5t90 85t48 115 t14.5 121.5q0 51 -12.5 111.5t-45 111.5t-90 85t-145.5 34q-78 0 -127 -17.5t-72 -27.5v-594z" />
<glyph unicode="c" horiz-adv-x="894" d="M51 500q0 102 35 199.5t103.5 172t172 120.5t240.5 46q41 0 113.5 -9t158.5 -44v-215q-12 10 -33.5 25.5t-52 29t-70.5 23.5t-89 10q-74 0 -133.5 -26.5t-100.5 -73.5t-63.5 -111.5t-22.5 -140.5q0 -74 23.5 -139.5t67.5 -113.5t111 -77t153 -29q63 0 120.5 15.5 t128.5 38.5l-114 -193q-29 -10 -82 -21.5t-131 -11.5q-109 0 -206 35t-170 102.5t-116 165t-43 222.5z" />
<glyph unicode="d" d="M51 489q0 109 33 208.5t96.5 174t153.5 119.5t205 45q72 0 134 -16t122 -51v477h241v-1446h-241v168l-117 -168q-27 -8 -63.5 -16.5t-90.5 -8.5q-127 0 -216 43t-146.5 116t-84 165t-26.5 190zM305 487q0 -35 4 -67.5t15 -65.5q25 -84 91 -141t179 -57q53 0 103.5 13 t97.5 36v588q-59 39 -111.5 49t-87.5 10q-29 0 -75 -9t-95 -48q-68 -53 -94.5 -136.5t-26.5 -171.5z" />
<glyph unicode="e" horiz-adv-x="1024" d="M51 502q0 117 35 216t98.5 169.5t153.5 110.5t201 40q53 0 106 -10t103 -33q92 -43 141 -109.5t72.5 -138t28.5 -141t5 -114.5h-686q2 -25 6 -57t14.5 -65.5t29 -67.5t49.5 -64q53 -49 122.5 -68.5t141.5 -19.5q104 0 181 24.5t108 36.5l-117 -203q-117 -33 -244 -33 q-137 0 -239.5 39t-171 110t-103.5 167t-35 211zM313 643h437q0 14 -2.5 33.5t-8.5 43t-17 47.5t-32 46q-57 61 -147 61q-94 0 -152.5 -65.5t-77.5 -165.5z" />
<glyph unicode="f" horiz-adv-x="598" d="M23 840l106 174h25v90q0 51 6 107.5t37 111.5q27 49 62.5 79t75.5 46t80 21.5t74 5.5q47 0 78 -5.5t62 -13.5v-184q-16 8 -40 15t-54 7q-88 0 -117 -47t-29 -121v-112h199v-174h-199v-840h-235v840h-131z" />
<glyph unicode="g" d="M51 508q0 100 34 195.5t103.5 170t177 119.5t257.5 45q27 0 70.5 -2t99 -11t118 -26.5t127.5 -48.5v-809v-28q0 -68 -8 -129q-10 -72 -57 -156q-70 -117 -192 -180.5t-287 -63.5q-41 0 -90.5 5t-108.5 16q-82 16 -122 32.5t-71 32.5v226q51 -41 105.5 -66t104.5 -39 t92 -18t71 -4q57 0 128 18t122 78q27 31 42 66.5t22.5 79.5t8.5 96.5t1 117.5l-117 -168q-29 -6 -66.5 -12t-87.5 -6q-109 0 -196.5 33.5t-150 96t-96.5 148.5t-34 191zM307 530q0 -150 78 -231.5t207 -81.5q72 0 128 20.5t79 30.5v555q-25 10 -73 22.5t-108 12.5 q-137 0 -224 -87t-87 -241z" />
<glyph unicode="h" d="M115 0v1446h243v-625l123 185q53 16 101.5 23t103.5 7q23 0 53.5 -2t64.5 -11t69.5 -25.5t66.5 -45.5q35 -33 54.5 -67.5t28.5 -70.5t12 -71.5t3 -68.5v-674h-239v512q0 59 -2 105.5t-8.5 81t-20.5 61t-39 49.5q-20 16 -54 29.5t-85 13.5q-49 0 -110.5 -17.5 t-121.5 -58.5v-776h-243z" />
<glyph unicode="i" horiz-adv-x="468" d="M106 1352q0 53 38 88t89 35t90 -33t39 -90q0 -55 -37.5 -89t-91.5 -34q-51 0 -89 34.5t-38 88.5zM115 0v1014h239v-1014h-239z" />
<glyph unicode="j" horiz-adv-x="468" d="M106 1352q0 53 38 88t92 35q53 0 91 -35t38 -88t-38 -88t-91 -35t-91.5 34.5t-38.5 88.5zM115 -422v1436h239v-1295z" />
<glyph unicode="k" horiz-adv-x="1067" d="M115 0v1446h241v-864l410 430h281l-424 -449l481 -563h-297l-451 535v-535h-241z" />
<glyph unicode="l" horiz-adv-x="468" d="M115 0v1446h239v-1446h-239z" />
<glyph unicode="m" horiz-adv-x="1792" d="M115 0v1014h241v-180l117 163q53 18 102.5 28.5t104.5 10.5q53 0 104.5 -11t95.5 -37.5t75.5 -67.5t48.5 -99l126 178q23 10 76.5 23.5t130.5 13.5q18 0 51 -2t72 -12t79 -31.5t71 -60.5q49 -59 58 -128t9 -149v-653h-241v600q0 53 -7.5 99t-29 80t-59 52.5t-99.5 18.5 q-76 0 -137.5 -29.5t-91.5 -48.5q2 -18 3 -44t1 -87v-641h-240v598q0 51 -8 97t-29.5 81t-59.5 54.5t-101 19.5q-68 0 -125.5 -23.5t-96.5 -44.5v-782h-241z" />
<glyph unicode="n" d="M115 0v1012h239v-193l131 185q59 23 118 27.5t87 4.5q109 0 177.5 -31.5t106.5 -86t51 -126t13 -151.5v-641h-239v575q0 57 -7.5 107.5t-31 87.5t-65.5 58.5t-111 21.5q-55 0 -115.5 -19.5t-114.5 -56.5v-774h-239z" />
<glyph unicode="o" horiz-adv-x="1110" d="M51 496q0 113 35 212t101.5 171.5t161.5 114.5t216 42q111 0 201 -36.5t155.5 -105.5t101.5 -165t36 -215q0 -113 -32 -211t-95.5 -171t-158.5 -115t-220 -42t-219 41t-156.5 112t-94.5 165t-32 203zM307 504q0 -59 11.5 -126t46.5 -122t86 -80.5t106 -25.5 q63 0 110.5 29.5t78 79.5t45 114.5t14.5 136.5q0 70 -13.5 134.5t-43 113.5t-76.5 77.5t-113 28.5h-4q-61 -2 -109.5 -28.5t-83.5 -85.5q-35 -55 -45 -118t-10 -128z" />
<glyph unicode="p" d="M115 -428v1440h241v-170l117 168q31 10 64.5 18t93.5 8q111 0 199 -36.5t147 -104.5t91 -162t32 -207q0 -125 -36 -226t-101.5 -174t-155.5 -112t-199 -39q-92 0 -151.5 22.5t-100.5 43.5v-469h-241zM356 221q18 -12 68.5 -36.5t130.5 -24.5q74 0 129 28.5t91 77.5 t54.5 114.5t18.5 139.5q0 78 -19.5 138.5t-50.5 99.5q-29 37 -83 68.5t-140 31.5q-53 0 -102.5 -13.5t-96.5 -35.5v-588z" />
<glyph unicode="q" d="M51 475q0 111 35 212t104.5 179t173 124t238.5 46q57 0 117.5 -9t117 -24.5t108.5 -36t93 -40.5v-1354h-239v596l-113 -170q-33 -8 -75 -15.5t-93 -7.5q-109 0 -194.5 37t-146 103.5t-93.5 159t-33 200.5zM307 489q0 -86 22.5 -148t62.5 -104t91.5 -61.5t110.5 -19.5 q72 0 125 19.5t80 31.5v590q-47 29 -94.5 42t-100.5 13q-61 0 -114.5 -22.5t-94.5 -66.5t-64.5 -112.5t-23.5 -161.5z" />
<glyph unicode="r" horiz-adv-x="724" d="M115 0v1012h245v-176l117 163q31 12 77 22.5t112 10.5q35 0 54 -4t42 -10v-234q-41 20 -87 39t-110 19q-35 0 -90 -11.5t-115 -50.5v-780h-245z" />
<glyph unicode="s" horiz-adv-x="811" d="M74 45v201q53 -37 129 -68t139 -31q45 0 77 13.5t52.5 34t29.5 45t9 47.5q0 33 -13.5 57.5t-35 40.5t-47 27.5t-47.5 21.5l-78 29q-25 8 -62 25.5t-70.5 48t-58 75.5t-24.5 113q0 59 23.5 115.5t69.5 99.5t115.5 69.5t159.5 26.5q102 0 170 -23.5t99 -39.5v-197 q-10 10 -29.5 25.5t-47.5 31t-66 25.5t-83 10q-47 0 -78.5 -13t-50 -32.5t-26.5 -42t-8 -43.5q0 -29 11 -49t29.5 -34.5t40 -26t43.5 -19.5l103 -41q41 -18 70.5 -34.5t56.5 -38.5q12 -10 26.5 -27.5t28.5 -42.5t23.5 -57.5t9.5 -73.5q0 -61 -24.5 -118.5t-73 -101.5 t-120 -71t-165.5 -27q-68 0 -144.5 15.5t-162.5 54.5z" />
<glyph unicode="t" horiz-adv-x="641" d="M20 840l109 174h27v190l237 74v-264h228v-174h-232l-4 -443q0 -84 3 -122.5t22 -67.5q14 -20 43.5 -37.5t81.5 -17.5q35 0 68.5 8t66.5 18l-140 -188q-23 -4 -51 -9.5t-69 -5.5q-23 0 -47.5 2.5t-51 10.5t-53.5 23.5t-51 41.5q-47 51 -55 107q-6 45 -5 97v28l5 555h-132z " />
<glyph unicode="u" d="M115 340v672h241v-588q0 -55 6.5 -102.5t28 -83t61.5 -56t109 -20.5q59 0 124 21.5t114 56.5v772h239v-1012h-239v193l-129 -185q-63 -23 -116.5 -28t-84.5 -5q-18 0 -48 2.5t-63.5 10.5t-70.5 25.5t-70 45.5q-37 33 -57.5 68t-30.5 72t-12 72.5t-2 68.5z" />
<glyph unicode="v" horiz-adv-x="1024" d="M0 1012h262l262 -768l252 768h248l-381 -1012h-256z" />
<glyph unicode="w" horiz-adv-x="1492" d="M0 1012h254l156 -762l233 762h225l232 -762l160 762h233l-244 -1012h-268l-236 715l-223 -715h-270z" />
<glyph unicode="x" horiz-adv-x="1067" d="M0 0l389 530l-350 482h276l226 -310l229 310h256l-346 -473l387 -539h-281l-256 360l-264 -360h-266z" />
<glyph unicode="y" horiz-adv-x="1024" d="M0 1012h256l268 -770l254 770h246l-395 -1030q-25 -61 -57.5 -130t-87 -125.5t-138.5 -94.5t-213 -38q-35 0 -59.5 3.5t-53.5 7.5l62 176q35 -4 47 -4h21q49 0 86.5 19.5t66.5 51t50.5 72.5t37.5 84z" />
<glyph unicode="z" horiz-adv-x="980" d="M66 0v178l559 653h-514v181h809v-178l-555 -650h604l-107 -184h-796z" />
<glyph unicode="{" horiz-adv-x="681" d="M29 643v172q35 2 78 12.5t75 63.5q23 41 28 97t7 120q2 59 12.5 122.5t59.5 119.5q31 35 68.5 54t82.5 28.5t98.5 11.5t114.5 2v-156q-59 -2 -102 -10t-74 -43q-23 -29 -29 -66.5t-8 -93.5q0 -49 -2 -82.5t-5 -59.5t-9 -46.5t-16 -40.5q-18 -37 -41 -59.5t-46.5 -35 t-44 -17.5t-34.5 -7v-10q23 -4 49 -13.5t57 -31.5q47 -37 61.5 -83t18.5 -69q2 -14 3 -24.5t2 -25.5t2 -39.5t3 -63.5q2 -74 15.5 -115t40 -62.5t65.5 -27.5t94 -8v-156q-61 0 -114.5 2t-98.5 11.5t-83 28.5t-68 54q-53 57 -62.5 131t-11.5 152q0 35 -2 60.5t-6 56.5 q-10 51 -30.5 80.5t-46.5 44t-52.5 18.5t-48.5 4z" />
<glyph unicode="|" horiz-adv-x="468" d="M154 -512v2048h163v-2048h-163z" />
<glyph unicode="}" horiz-adv-x="681" d="M29 1290v156q92 -2 149.5 -5t108.5 -20q59 -23 94 -57.5t53.5 -73.5t23.5 -75.5t7 -59.5v-19.5t1 -29.5t1 -30.5v-20.5q2 -72 15.5 -117t36 -71.5t56 -38t78.5 -13.5v-172q-35 -2 -78 -12t-73 -64q-23 -41 -28 -93t-5 -95q-2 -78 -11 -151.5t-63 -131.5 q-31 -35 -68.5 -54t-82.5 -28.5t-98.5 -11.5t-114.5 -2v156q43 2 78.5 6t63.5 19.5t45.5 48t23.5 92.5q0 6 1 23t2 36.5t1 38v24.5q4 109 44 180.5t150 94.5v10q-14 2 -34.5 7t-43 17.5t-46 35t-42.5 59.5q-16 33 -21 60.5t-7 60.5q0 8 -1 31.5t-2 50t-2 51t-1 35.5 q-4 55 -22.5 84.5t-47.5 45t-65.5 18.5t-75.5 5z" />
<glyph unicode="~" horiz-adv-x="1492" d="M254 592q12 18 34.5 47t56.5 56.5t79 48t102 20.5t114.5 -21.5t113.5 -46.5l67 -30q47 -23 79 -33t65 -10q31 0 60.5 12t55 31.5t46 42t34.5 41.5l78 -148q-18 -23 -46 -51.5t-63.5 -53t-78.5 -41t-93 -16.5q-51 0 -96 17.5t-110 48.5l-58 29q-39 18 -81 33.5t-83 15.5 q-37 0 -73 -17q-12 -6 -22.5 -13t-23 -19.5t-29.5 -33t-46 -55.5z" />
<glyph unicode="&#xa1;" horiz-adv-x="512" d="M129 1327q0 57 39 97t96 40q61 0 99 -42t38 -95t-37.5 -95t-99.5 -42q-59 0 -97 40t-38 97zM133 -2l25 952l204 123l27 -1075h-256z" />
<glyph unicode="&#xa2;" horiz-adv-x="937" d="M53 496q0 123 35 205.5t72 132.5q39 51 80 84.5t80.5 54t73.5 31t57 16.5v235h186v-221q96 -4 147.5 -22.5t77.5 -30.5v-213q-55 45 -116.5 65.5t-124.5 20.5q-76 0 -134.5 -28.5t-98.5 -77t-61.5 -112t-21.5 -132.5q0 -86 27.5 -152.5t76 -111.5t111 -69t133.5 -24 q72 0 141.5 21.5t104.5 34.5l-113 -197q-37 -12 -75.5 -17t-73.5 -7v-230h-186v238q-94 20 -168 66t-125.5 113t-78 149.5t-26.5 177.5z" />
<glyph unicode="&#xa3;" horiz-adv-x="1193" d="M27 600v184h264v101q2 43 6 97t21.5 112.5t53.5 116t99 106.5q88 68 177 85t151 17q78 0 147.5 -14t143.5 -47v-234q-12 10 -35 26.5t-55.5 33t-75.5 28t-95 11.5q-72 0 -119.5 -22.5t-76.5 -51.5q-35 -33 -53.5 -70t-27.5 -73.5t-11 -71.5t-2 -66v-84h335v-184h-335 v-405h694l-111 -195h-954l123 195v405h-264z" />
<glyph unicode="&#xa4;" horiz-adv-x="1366" d="M86 221l156 156q-12 18 -30.5 46t-35 66.5t-28 90t-11.5 114.5t11.5 114.5t28 90.5t33.5 67.5t32 47.5l-154 153l123 123l154 -153q18 14 46.5 31.5t67.5 34t90.5 27.5t114.5 11t112.5 -11t88.5 -26.5t66.5 -34t47.5 -32.5l156 153l123 -123l-154 -153q14 -20 32 -48 t33 -67t26.5 -89t11.5 -114q0 -63 -11.5 -114.5t-28 -90t-33.5 -67.5t-32 -49l156 -156l-125 -125l-154 158q-18 -12 -46.5 -30.5t-67.5 -34t-89.5 -26.5t-111.5 -11q-66 0 -117 11t-89 27.5t-66.5 34t-46.5 31.5l-156 -156zM301 694q0 -84 30.5 -154.5t83 -121.5t122 -80 t149.5 -29t148.5 30t119 82t80 122.5t29.5 154.5q0 86 -32 157t-84 121t-120.5 77.5t-144.5 27.5t-144.5 -27.5t-120.5 -77.5t-84 -122t-32 -160z" />
<glyph unicode="&#xa5;" horiz-adv-x="1280" d="M0 1399h297l354 -619l353 619h276l-322 -551h177v-184h-283l-76 -132v-53h359v-184h-359v-295h-272v295h-361v184h361v53l-76 132h-285v184h176z" />
<glyph unicode="&#xa6;" horiz-adv-x="468" d="M154 358h163v-716h-163v716zM154 666v716h163v-716h-163z" />
<glyph unicode="&#xa7;" horiz-adv-x="980" d="M68 522q0 125 73.5 214t190.5 134q-23 16 -52.5 42t-55 60t-44 79t-18.5 100q0 57 23.5 115.5t72.5 106.5t125 79t180 31q82 0 153.5 -17.5t145.5 -54.5v-240q-53 51 -117.5 85t-136.5 34q-49 0 -82.5 -14t-55 -35.5t-32 -48.5t-10.5 -51q0 -31 13.5 -57.5t35 -48t45 -38 t45.5 -30.5l105 -60q35 -23 78 -53.5t81.5 -73.5t64.5 -99t26 -130q0 -41 -8.5 -77t-22.5 -66q-20 -47 -48 -81t-57.5 -58.5t-59.5 -41t-50 -28.5q18 -16 42.5 -40t47 -56.5t39 -75.5t16.5 -97q0 -53 -22.5 -114.5t-70.5 -114.5t-126 -89t-188 -36q-47 0 -131 11.5 t-172 56.5v243q18 -16 42.5 -35.5t56.5 -37t69.5 -28.5t82.5 -11q51 0 88 15t59.5 39t34 52.5t11.5 55.5q0 37 -14.5 65.5t-37 51t-50 40t-56.5 33.5l-86 49q-51 31 -96 63.5t-78 73.5t-51 92.5t-18 116.5zM311 553q0 -49 21.5 -88t51.5 -67.5t61.5 -49.5t54.5 -33 q29 12 65.5 31t67.5 60q23 31 34 63.5t11 60.5q0 78 -55.5 136.5t-126.5 95.5q-16 -4 -36 -12.5t-42 -22.5q-47 -29 -77 -75t-30 -99z" />
<glyph unicode="&#xa8;" horiz-adv-x="598" d="M-37 1264q0 53 38 87.5t89 34.5q53 0 91 -34.5t38 -87.5t-37 -88t-92 -35q-51 0 -89 34.5t-38 88.5zM379 1264q0 53 38 87.5t89 34.5q53 0 91 -33.5t38 -88.5q0 -53 -38 -88t-91 -35q-51 0 -89 34.5t-38 88.5z" />
<glyph unicode="&#xa9;" horiz-adv-x="1705" d="M125 723q0 158 58.5 291t157.5 230t231.5 152.5t279.5 55.5q158 0 292 -57.5t231.5 -156.5t152.5 -231t55 -282q0 -152 -56.5 -285t-154.5 -232t-231 -156.5t-289 -57.5q-143 0 -274.5 53t-231.5 149.5t-160.5 230.5t-60.5 296zM190 723q0 -139 52.5 -261t142.5 -211 t210 -140.5t257 -51.5q141 0 263 52.5t211 142.5t140.5 211t51.5 260q0 135 -50.5 256t-138.5 211t-210 142t-263 52t-262 -52t-211 -142t-141.5 -211t-51.5 -258zM383 723q0 104 36 193.5t100.5 156t153.5 103t195 36.5q86 0 150.5 -21.5t113 -52t78 -61t45.5 -49.5 l-114 -108q-16 18 -40 41.5t-56.5 45t-76.5 37t-100 15.5q-68 0 -127 -24.5t-103 -68.5t-69.5 -104.5t-25.5 -134.5t25.5 -135.5t70.5 -104.5t104.5 -67.5t126.5 -24.5q57 0 101.5 14.5t77 36t55 44t37.5 38.5l114 -100q-14 -18 -35.5 -42t-60.5 -52q-47 -35 -117.5 -63.5 t-175.5 -28.5q-104 0 -193 35.5t-153.5 100t-100.5 152.5t-36 193z" />
<glyph unicode="&#xaa;" horiz-adv-x="641" d="M33 973q0 78 41 125t88 69q37 16 81 23.5t91 7.5h30.5t45.5 -4q0 78 -29 111.5t-100 33.5q-57 0 -105.5 -15t-99.5 -36l88 152q35 10 79 16t83 6q35 0 89 -9t99 -52q41 -41 48 -87t7 -91v-316q0 -31 1 -47t3 -27.5t3.5 -20.5t5.5 -24h-160q-4 12 -5 20.5l-2 17t-2 18.5 t-3 26l-64 -88h-2q-25 -6 -39 -8t-39 -2q-47 0 -90 12.5t-78 40.5q-20 16 -42.5 52t-22.5 96zM199 979q0 -12 4 -27.5t15 -29t30.5 -22.5t52.5 -9q35 0 62.5 9t46.5 20v161q-16 2 -21.5 2h-15.5q-18 0 -48 -2t-57.5 -11t-48 -30.5t-20.5 -60.5z" />
<glyph unicode="&#xab;" horiz-adv-x="894" d="M39 537l223 319h215l-221 -321l221 -322h-215zM420 535l221 321h217l-223 -321l223 -322h-217z" />
<glyph unicode="&#xac;" horiz-adv-x="1366" d="M0 518v162h1366v-678h-164v516h-1202z" />
<glyph unicode="&#xad;" horiz-adv-x="681" d="M8 451l121 167h545l-119 -167h-547z" />
<glyph unicode="&#xae;" horiz-adv-x="1705" d="M125 723q0 158 58.5 291t157.5 230t231.5 152.5t279.5 55.5q158 0 292 -58.5t231.5 -157.5t152.5 -231.5t55 -279.5q0 -152 -56.5 -285t-154.5 -232t-231 -156.5t-289 -57.5q-141 0 -273.5 53t-232.5 149.5t-160.5 230.5t-60.5 296zM190 723q0 -139 52.5 -261t142.5 -211 t211 -140.5t258 -51.5q141 0 262 52.5t210 142.5t140.5 211t51.5 260q0 135 -50.5 255t-138.5 211t-210 143t-263 52t-262 -52t-211 -142t-141.5 -211t-51.5 -258zM545 268v920h364q53 0 106.5 -11.5t95.5 -38t68.5 -72.5t26.5 -114q0 -86 -50 -140t-138 -77 q27 -12 48 -26.5t36.5 -36t27 -52t19.5 -77.5q8 -53 14 -90t13.5 -68t16.5 -58.5t26 -58.5h-187q-6 12 -16 40t-21 89q-2 6 -5 26.5t-6 43t-6 43t-5 29.5q-10 53 -28.5 82.5t-50.5 43t-77 15.5t-108 2v-414h-164zM711 813h135q92 0 144 26.5t52 100.5q0 43 -15 66.5 t-40.5 36t-57.5 15.5t-65 3h-153v-248z" />
<glyph unicode="&#xaf;" horiz-adv-x="598" d="M25 1202v129h548v-129h-548z" />
<glyph unicode="&#xb0;" horiz-adv-x="724" d="M31 1217q0 68 26.5 128t71.5 105t105 70.5t128 25.5t128.5 -25.5t105.5 -70.5t70.5 -105.5t25.5 -127.5q0 -68 -25.5 -128.5t-70.5 -105.5t-105.5 -70.5t-128.5 -25.5q-70 0 -130 25.5t-105 70.5t-70.5 105.5t-25.5 128.5zM201 1221q0 -68 47 -115t114 -47q68 0 115 47 t47 115t-47 114.5t-115 46.5t-114.5 -47t-46.5 -114z" />
<glyph unicode="&#xb1;" horiz-adv-x="1366" d="M84 0v162h1198v-162h-1198zM84 772v162h520v496h164v-496h514v-162h-514v-498h-164v498h-520z" />
<glyph unicode="&#xb2;" horiz-adv-x="724" d="M57 496v127l275 311q57 66 83.5 107.5t26.5 91.5q0 51 -33.5 95t-111.5 44q-39 0 -71.5 -12.5t-60.5 -31t-49.5 -40t-39.5 -41.5v184q37 25 100.5 54.5t157.5 29.5q72 0 127 -21.5t92 -57.5t56.5 -84t19.5 -101q0 -82 -36 -138.5t-83 -111.5l-234 -270h410l-94 -135h-535 z" />
<glyph unicode="&#xb3;" horiz-adv-x="724" d="M68 535v170q49 -41 106 -64t119 -23q82 0 123 44.5t41 99.5q0 6 -2 25.5t-14.5 41t-38 43t-72.5 31.5q-35 8 -70 8t-88 -2l90 129q45 0 75 12.5t48 33t25.5 42t7.5 39.5q0 43 -32 76t-91 33q-39 0 -73 -13.5t-61.5 -32t-47 -38l-31.5 -31.5v176q55 37 118.5 58.5 t129.5 21.5q121 0 193.5 -65.5t72.5 -163.5q0 -49 -18.5 -89t-49.5 -69q-16 -16 -32.5 -24.5t-32.5 -16.5q55 -16 90 -45t54.5 -61.5t27.5 -66.5t8 -60q0 -55 -22.5 -105.5t-64.5 -88.5t-102.5 -60.5t-136.5 -22.5q-51 0 -118.5 13.5t-130.5 44.5z" />
<glyph unicode="&#xb4;" horiz-adv-x="598" d="M86 1124v174l424 162v-172z" />
<glyph unicode="&#xb5;" d="M115 -428v1440h241v-563q0 -66 8.5 -119.5t30 -90t61.5 -57t105 -20.5q55 0 118.5 19.5t119.5 58.5v772h239v-1012h-239v193l-129 -185q-39 -14 -71 -22.5t-73 -8.5q-80 0 -116.5 31t-59.5 60v-496h-235z" />
<glyph unicode="&#xb6;" horiz-adv-x="1366" d="M178 1036q0 86 32 167t97 138q41 37 85 58.5t87 31t83 12.5t71 3h471v-111h-70v-1675h-119v1675h-297v-1675h-116v993q-37 6 -83 19.5t-100 54.5q-72 53 -106.5 135t-34.5 174z" />
<glyph unicode="&#xb7;" horiz-adv-x="425" d="M78 535q0 53 38 95t97 42t97 -40t38 -97q0 -59 -39 -98.5t-96 -39.5q-59 0 -97 42t-38 96z" />
<glyph unicode="&#xb8;" horiz-adv-x="598" d="M109 -383l163 301h215l-215 -301h-163z" />
<glyph unicode="&#xb9;" horiz-adv-x="724" d="M156 1116v144l313 161v-925h-174v694z" />
<glyph unicode="&#xba;" horiz-adv-x="724" d="M35 1112q0 72 22.5 135.5t65.5 111.5t104.5 75.5t141.5 27.5q70 0 129 -23.5t102 -68.5t66.5 -107.5t23.5 -140.5q0 -72 -21.5 -135t-62.5 -110.5t-102.5 -75t-143.5 -27.5q-80 0 -140 25.5t-101 70.5t-62.5 107.5t-21.5 134.5zM209 1116q0 -82 21.5 -126t48 -64.5 t51 -24.5t32.5 -4q39 0 69 18.5t48.5 49t27.5 71.5t9 84q0 39 -8 79t-25.5 70.5t-46 50t-71.5 19.5q-41 0 -74 -18q-4 -4 -17.5 -15.5t-28 -35t-25.5 -61.5t-11 -93z" />
<glyph unicode="&#xbb;" horiz-adv-x="894" d="M39 213l221 322l-221 321h215l223 -321l-223 -322h-215zM418 213l223 322l-223 321h217l221 -321l-221 -322h-217z" />
<glyph unicode="&#xbc;" horiz-adv-x="1705" d="M156 1116v144l313 161v-925h-174v694zM449 0l606 1399h162l-607 -1399h-161zM975 225v43l391 635h193v-543h141l-94 -135h-47v-225h-168v225h-416zM1196 360h195v340z" />
<glyph unicode="&#xbd;" horiz-adv-x="1705" d="M156 1116v144l313 163v-927h-174v694zM430 0l606 1399h162l-606 -1399h-162zM1038 0v127l275 311q57 68 83.5 109t26.5 92t-33.5 95t-111.5 44q-39 0 -71.5 -12t-60.5 -30.5t-49.5 -41t-39.5 -41.5v185q37 25 100.5 54.5t157.5 29.5q70 0 125 -21.5t93 -57.5t57.5 -84 t19.5 -102q0 -80 -36 -137t-83 -114l-234 -271h410l-94 -135h-535z" />
<glyph unicode="&#xbe;" horiz-adv-x="1705" d="M68 535v170q49 -41 106 -64t121 -23q78 0 120 43.5t42 100.5q0 10 -3 29.5t-15.5 41t-38 41t-70.5 29.5q-35 8 -70 8t-88 -2l90 129q45 0 75 12.5t48 33t25.5 42t7.5 39.5q0 41 -32 75t-91 34q-39 0 -73 -13.5t-61.5 -32t-47 -38l-31.5 -31.5v176q55 37 118.5 58.5 t129.5 21.5q121 0 193.5 -65.5t72.5 -163.5q0 -49 -18.5 -89t-49.5 -69q-16 -16 -32.5 -24.5t-32.5 -16.5q53 -16 88 -42.5t55.5 -59.5t28.5 -67t8 -64q0 -55 -22.5 -105.5t-64.5 -88.5t-102.5 -60.5t-136.5 -22.5q-49 0 -116.5 13.5t-132.5 44.5zM485 0l605 1399h161 l-606 -1399h-160zM975 225v43l391 635h193v-543h141l-94 -135h-47v-225h-168v225h-416zM1196 360h195v340z" />
<glyph unicode="&#xbf;" horiz-adv-x="854" d="M2 356q0 66 22.5 131.5t73.5 120.5q33 37 69 58.5t70.5 35t66.5 19.5t58 10v207l234 135v-477q-74 -4 -127 -12.5t-107 -38.5q-39 -23 -71.5 -63t-32.5 -111q0 -86 61.5 -141.5t172.5 -55.5q98 0 165.5 32t118.5 62v-227q-92 -41 -175 -56.5t-152 -15.5q-104 0 -187.5 31 t-141 83t-88 122.5t-30.5 150.5zM348 1329q0 57 38 97t95 40t95 -41t38 -96q0 -53 -36.5 -95t-96.5 -42q-57 0 -95 40t-38 97z" />
<glyph unicode="&#xc0;" horiz-adv-x="1409" d="M0 0l584 1446h262l563 -1446h-293l-133 360h-575l-138 -360h-270zM422 1692v174l426 -164v-174zM473 539h447l-195 540q-6 18 -9 30.5t-14 47.5q-10 -35 -14 -47t-8 -27z" />
<glyph unicode="&#xc1;" horiz-adv-x="1409" d="M0 0l584 1446h262l563 -1446h-293l-133 360h-575l-138 -360h-270zM473 539h447l-195 540q-6 18 -9 30.5t-14 47.5q-10 -35 -14 -47t-8 -27zM559 1528v174l424 164v-174z" />
<glyph unicode="&#xc2;" horiz-adv-x="1409" d="M0 0l584 1446h262l563 -1446h-293l-133 360h-575l-138 -360h-270zM473 539h447l-195 540q-6 18 -9 30.5t-14 47.5q-10 -35 -14 -47t-8 -27zM483 1532v180l222 166l225 -166v-180l-225 162z" />
<glyph unicode="&#xc3;" horiz-adv-x="1409" d="M0 0l584 1446h262l563 -1446h-293l-133 360h-575l-138 -360h-270zM440 1561v163q20 18 54 42t94 24q31 0 62.5 -10.5t62.5 -22.5q35 -14 60.5 -21t55.5 -7q39 0 72 13t66 36v-168q-16 -10 -48 -28.5t-88 -18.5q-37 0 -66.5 9t-59.5 19q-45 16 -69 23.5t-52 7.5 q-53 0 -87 -21.5t-57 -39.5zM473 539h447l-195 540q-6 18 -9 30.5t-14 47.5q-10 -35 -14 -47t-8 -27z" />
<glyph unicode="&#xc4;" horiz-adv-x="1409" d="M0 0l584 1446h262l563 -1446h-293l-133 360h-575l-138 -360h-270zM373 1667q0 53 38 88t89 35q53 0 91 -35t38 -88t-37 -88t-92 -35q-51 0 -89 35t-38 88zM473 539h447l-195 540q-6 18 -9 30.5t-14 47.5q-10 -35 -14 -47t-8 -27zM788 1667q0 53 38 88t89 35q53 0 91 -34 t38 -89q0 -53 -37.5 -88t-91.5 -35q-51 0 -89 35t-38 88z" />
<glyph unicode="&#xc5;" horiz-adv-x="1409" d="M0 0l584 1446h262l563 -1446h-293l-133 360h-575l-138 -360h-270zM473 539h447l-195 540q-6 18 -9 30.5t-14 47.5q-10 -35 -14 -47t-8 -27zM514 1722q0 39 14.5 74t40 61.5t60.5 42t76 15.5q82 0 137 -55.5t55 -137.5q0 -80 -53 -136t-137 -56q-43 0 -78 15.5t-60.5 42 t-40 61t-14.5 73.5zM606 1722q0 -43 29 -71.5t70 -28.5q43 0 71.5 28.5t28.5 71.5q0 41 -27.5 70t-70.5 29q-47 0 -74 -29t-27 -70z" />
<glyph unicode="&#xc6;" horiz-adv-x="1961" d="M0 0l872 1448h988v-205h-578v-383h498v-205h-498v-448h676l-123 -207h-815v387h-506l-227 -387h-287zM625 580h395v675z" />
<glyph unicode="&#xc7;" horiz-adv-x="1366" d="M63 715q0 156 55.5 295t162 244.5t261 167t353.5 61.5q160 0 262.5 -28t138.5 -42v-248q-23 14 -56.5 35t-81.5 39t-107.5 31.5t-132.5 13.5q-129 0 -233.5 -42t-178.5 -115.5t-115 -175t-41 -220.5q0 -121 41 -224.5t119 -180t190.5 -120.5t257.5 -44q70 0 134.5 9 t119 21.5t93 25.5t59.5 20l-135 -234q-94 -27 -183.5 -34t-144.5 -7q-203 0 -359.5 59.5t-263 162t-161 238.5t-54.5 292zM555 -430l180 344h228l-228 -344h-180z" />
<glyph unicode="&#xc8;" horiz-adv-x="1067" d="M121 0v1446h848v-205h-580v-385h500v-205h-500v-444h674l-119 -207h-823zM250 1692v174l426 -164v-174z" />
<glyph unicode="&#xc9;" horiz-adv-x="1067" d="M121 0v1446h848v-205h-580v-385h500v-205h-500v-444h674l-119 -207h-823zM387 1528v174l424 164v-174z" />
<glyph unicode="&#xca;" horiz-adv-x="1067" d="M121 0v1446h848v-205h-580v-385h500v-205h-500v-444h674l-119 -207h-823zM311 1532v180l221 166l226 -166v-180l-226 162z" />
<glyph unicode="&#xcb;" horiz-adv-x="1067" d="M121 0v1446h848v-205h-580v-385h500v-205h-500v-444h674l-119 -207h-823zM197 1667q0 53 38 88t89 35q53 0 91 -35t38 -88t-37 -88t-92 -35q-51 0 -89 35t-38 88zM612 1667q0 53 38 88t89 35q53 0 91 -34t38 -89q0 -53 -37.5 -88t-91.5 -35q-51 0 -89 35t-38 88z" />
<glyph unicode="&#xcc;" horiz-adv-x="512" d="M-27 1692v174l426 -164v-174zM121 0v1446h270v-1446h-270z" />
<glyph unicode="&#xcd;" horiz-adv-x="512" d="M111 1528v174l424 164v-174zM121 0v1446h270v-1446h-270z" />
<glyph unicode="&#xce;" horiz-adv-x="512" d="M35 1532v180l221 166l225 -166v-180l-225 162zM121 0v1446h270v-1446h-270z" />
<glyph unicode="&#xcf;" horiz-adv-x="512" d="M-80 1667q0 53 38 88t89 35q53 0 91 -35t38 -88t-37 -88t-92 -35q-51 0 -89 35t-38 88zM121 0v1446h270v-1446h-270zM336 1667q0 53 38 88t89 35q53 0 91 -34t38 -89q0 -53 -38 -88t-91 -35q-51 0 -89 35t-38 88z" />
<glyph unicode="&#xd0;" horiz-adv-x="1449" d="M0 682v170h121v594h487q96 0 201.5 -15.5t216.5 -70.5q94 -47 162.5 -118t113 -153.5t64.5 -174t20 -183.5q0 -94 -21.5 -188t-65.5 -178t-113.5 -156t-167.5 -123q-117 -59 -220.5 -72.5t-195.5 -13.5h-481v682h-121zM387 201h195q39 0 83 4t91 16t95 37t95 68 q84 74 120 180t36 219q0 106 -34 206.5t-112 174.5q-49 47 -102 73.5t-108.5 40t-107.5 16.5t-97 3h-154v-387h363v-170h-363v-481z" />
<glyph unicode="&#xd1;" horiz-adv-x="1536" d="M121 0v1446h252l788 -897l-8 897h262v-1446h-94l-942 1044l8 -1044h-266zM504 1561v163q20 18 54 42t93 24q31 0 62.5 -10.5t62.5 -22.5q35 -14 60.5 -21t56.5 -7q39 0 71.5 13t65.5 36v-168q-16 -10 -48 -28.5t-87 -18.5q-37 0 -66.5 9t-60.5 19q-45 16 -68.5 23.5 t-52.5 7.5q-53 0 -87 -21.5t-56 -39.5z" />
<glyph unicode="&#xd2;" horiz-adv-x="1662" d="M63 719q0 154 52.5 292t152 242.5t241.5 167t322 62.5q174 0 316.5 -59.5t244 -162t156 -239.5t54.5 -293t-52.5 -295t-151 -243.5t-239.5 -166t-319 -61.5t-322.5 58.5t-245 160t-155 239.5t-54.5 298zM350 723q0 -115 34 -215t96.5 -175t152.5 -119t205 -44 q117 0 207 48t149 127t90 177.5t31 198.5q0 123 -36 226.5t-100.5 178t-152.5 115.5t-192 41q-106 0 -194.5 -42t-153 -117.5t-100.5 -178t-36 -221.5zM549 1692v174l426 -164v-174z" />
<glyph unicode="&#xd3;" horiz-adv-x="1662" d="M63 719q0 154 52.5 292t152 242.5t241.5 167t322 62.5q174 0 316.5 -59.5t244 -162t156 -239.5t54.5 -293t-52.5 -295t-151 -243.5t-239.5 -166t-319 -61.5t-322.5 58.5t-245 160t-155 239.5t-54.5 298zM350 723q0 -115 34 -215t96.5 -175t152.5 -119t205 -44 q117 0 207 48t149 127t90 177.5t31 198.5q0 123 -36 226.5t-100.5 178t-152.5 115.5t-192 41q-106 0 -194.5 -42t-153 -117.5t-100.5 -178t-36 -221.5zM686 1528v174l424 164v-174z" />
<glyph unicode="&#xd4;" horiz-adv-x="1662" d="M63 719q0 154 52.5 292t152 242.5t241.5 167t322 62.5q174 0 316.5 -59.5t244 -162t156 -239.5t54.5 -293t-52.5 -295t-151 -243.5t-239.5 -166t-319 -61.5t-322.5 58.5t-245 160t-155 239.5t-54.5 298zM350 723q0 -115 34 -215t96.5 -175t152.5 -119t205 -44 q117 0 207 48t149 127t90 177.5t31 198.5q0 123 -36 226.5t-100.5 178t-152.5 115.5t-192 41q-106 0 -194.5 -42t-153 -117.5t-100.5 -178t-36 -221.5zM610 1532v180l221 166l226 -166v-180l-226 162z" />
<glyph unicode="&#xd5;" horiz-adv-x="1662" d="M63 719q0 154 52.5 292t152 242.5t241.5 167t322 62.5q174 0 316.5 -59.5t244 -162t156 -239.5t54.5 -293t-52.5 -295t-151 -243.5t-239.5 -166t-319 -61.5t-322.5 58.5t-245 160t-155 239.5t-54.5 298zM350 723q0 -115 34 -215t96.5 -175t152.5 -119t205 -44 q117 0 207 48t149 127t90 177.5t31 198.5q0 123 -36 226.5t-100.5 178t-152.5 115.5t-192 41q-106 0 -194.5 -42t-153 -117.5t-100.5 -178t-36 -221.5zM567 1561v163q20 18 54 42t94 24q31 0 62.5 -10.5t62.5 -22.5q35 -14 60.5 -21t55.5 -7q39 0 72 13t66 36v-168 q-16 -10 -48 -28.5t-88 -18.5q-37 0 -66.5 9t-60.5 19q-45 16 -68.5 23.5t-51.5 7.5q-53 0 -87 -21.5t-57 -39.5z" />
<glyph unicode="&#xd6;" horiz-adv-x="1662" d="M63 719q0 154 52.5 292t152 242.5t241.5 167t322 62.5q174 0 316.5 -59.5t244 -162t156 -239.5t54.5 -293t-52.5 -295t-151 -243.5t-239.5 -166t-319 -61.5t-322.5 58.5t-245 160t-155 239.5t-54.5 298zM350 723q0 -115 34 -215t96.5 -175t152.5 -119t205 -44 q117 0 207 48t149 127t90 177.5t31 198.5q0 123 -36 226.5t-100.5 178t-152.5 115.5t-192 41q-106 0 -194.5 -42t-153 -117.5t-100.5 -178t-36 -221.5zM506 1667q0 53 38 88t89 35q53 0 91 -35t38 -88t-37 -88t-92 -35q-51 0 -89 35t-38 88zM922 1667q0 53 38 88t89 35 q53 0 91 -34t38 -89q0 -53 -38 -88t-91 -35q-51 0 -89 35t-38 88z" />
<glyph unicode="&#xd7;" horiz-adv-x="1366" d="M158 188l411 410l-411 412l112 114l414 -411l410 411l114 -114l-409 -412l409 -410l-114 -114l-410 409l-414 -409z" />
<glyph unicode="&#xd8;" horiz-adv-x="1662" d="M14 61l201 195q-12 18 -29.5 43t-35.5 61q-41 78 -64 168t-23 189q0 154 53.5 293t153 243.5t241.5 167t323 62.5q47 0 101 -5t116 -22q111 -29 175 -69.5t93 -63.5l192 186l123 -129l-188 -182q23 -33 43 -61.5t43 -75.5q35 -78 52.5 -163t17.5 -171q0 -154 -53.5 -292 t-154 -242.5t-241.5 -166t-317 -61.5q-143 0 -264 39t-232 125l-203 -197zM344 725q0 -109 26.5 -179.5t41.5 -99.5l737 715q-45 45 -93 69.5t-91 37t-79 15.5t-55 3q-104 0 -194 -43t-154.5 -118.5t-101.5 -178t-37 -221.5zM512 295q66 -63 149.5 -95t176.5 -32 q123 0 214 51t151.5 131t89 177.5t28.5 191.5q0 113 -26.5 184.5t-43.5 106.5z" />
<glyph unicode="&#xd9;" horiz-adv-x="1492" d="M115 549v897h270v-907q0 -78 18.5 -146.5t61.5 -119t112.5 -80t172.5 -29.5q106 0 175.5 32.5t110.5 88t57.5 128t16.5 150.5v883h268v-899q0 -78 -12 -163t-66 -171q-43 -70 -104 -117t-134 -76.5t-155 -43t-164 -13.5q-156 0 -270.5 40t-187.5 101q-61 51 -95 110.5 t-51.5 118t-20.5 115t-3 101.5zM465 1692v174l426 -164v-174z" />
<glyph unicode="&#xda;" horiz-adv-x="1492" d="M115 549v897h270v-907q0 -78 18.5 -146.5t61.5 -119t112.5 -80t172.5 -29.5q106 0 175.5 32.5t110.5 88t57.5 128t16.5 150.5v883h268v-899q0 -78 -12 -163t-66 -171q-43 -70 -104 -117t-134 -76.5t-155 -43t-164 -13.5q-156 0 -270.5 40t-187.5 101q-61 51 -95 110.5 t-51.5 118t-20.5 115t-3 101.5zM602 1528v174l424 164v-174z" />
<glyph unicode="&#xdb;" horiz-adv-x="1492" d="M115 549v897h270v-907q0 -78 18.5 -146.5t61.5 -119t112.5 -80t172.5 -29.5q106 0 175.5 32.5t110.5 88t57.5 128t16.5 150.5v883h268v-899q0 -78 -12 -163t-66 -171q-43 -70 -104 -117t-134 -76.5t-155 -43t-164 -13.5q-156 0 -270.5 40t-187.5 101q-61 51 -95 110.5 t-51.5 118t-20.5 115t-3 101.5zM526 1532v180l222 166l225 -166v-180l-225 162z" />
<glyph unicode="&#xdc;" horiz-adv-x="1492" d="M115 549v897h270v-907q0 -78 18.5 -146.5t61.5 -119t112.5 -80t172.5 -29.5q106 0 175.5 32.5t110.5 88t57.5 128t16.5 150.5v883h268v-899q0 -78 -12 -163t-66 -171q-43 -70 -104 -117t-134 -76.5t-155 -43t-164 -13.5q-156 0 -270.5 40t-187.5 101q-61 51 -95 110.5 t-51.5 118t-20.5 115t-3 101.5zM412 1667q0 53 38 88t89 35q53 0 91 -35t38 -88t-37 -88t-92 -35q-51 0 -89 35t-38 88zM827 1667q0 53 38 88t89 35q53 0 91 -34t38 -89q0 -53 -37.5 -88t-91.5 -35q-51 0 -89 35t-38 88z" />
<glyph unicode="&#xdd;" horiz-adv-x="1323" d="M0 1446h297l377 -653l373 653h276l-524 -899v-547h-273v547zM516 1528v174l424 164v-174z" />
<glyph unicode="&#xde;" horiz-adv-x="1110" d="M121 0v1446h270v-283h201q82 0 146.5 -7t131.5 -38q61 -29 106.5 -69.5t75 -90t44 -102.5t14.5 -104q0 -43 -10 -89.5t-31.5 -91.5t-57.5 -88t-87 -75q-51 -35 -106.5 -53.5t-110 -28t-104.5 -11.5t-89 -2h-123v-313h-270zM391 342l119 164q39 0 104.5 6t122.5 45 q41 29 67.5 78t26.5 108q0 51 -20 96.5t-55 73.5q-47 39 -102.5 45.5t-108.5 6.5h-154v-623z" />
<glyph unicode="&#xdf;" d="M115 0v918q2 66 5 123t13 108t33.5 97t64.5 89q59 61 155.5 98t213.5 37q94 0 168 -25.5t124 -70.5t76.5 -105.5t26.5 -129.5q0 -47 -10 -84t-25.5 -64.5t-32 -46t-28.5 -29.5q-35 -31 -69.5 -46t-65.5 -25q35 -6 72.5 -16.5t85.5 -39.5q53 -33 87.5 -74.5t55 -88.5 t29 -96.5t8.5 -96.5q0 -96 -29 -179t-83 -144.5t-133 -96.5t-179 -35q-68 0 -120 13.5t-91 25.5v203q25 -16 65.5 -36.5t100.5 -20.5q100 0 161.5 72.5t61.5 195.5q0 78 -27.5 136.5t-74.5 96t-110.5 56t-135.5 18.5h-28.5t-28.5 -2l137 191q78 10 123 63t45 125 q0 86 -50.5 132t-127.5 46q-12 0 -31 -2t-41.5 -10t-47 -24.5t-44.5 -45.5q-41 -55 -48.5 -127.5t-7.5 -158.5v-924h-243z" />
<glyph unicode="&#xe0;" horiz-adv-x="980" d="M41 281q0 115 59.5 186.5t139.5 105.5q59 27 127.5 38.5t138.5 11.5q37 0 62.5 -2.5t66.5 -6.5q0 57 -7 103.5t-31 79t-66 50t-109 17.5q-86 0 -161 -22.5t-140 -48.5l125 213q43 10 109.5 21t138.5 11q27 0 63.5 -2t75.5 -11t78 -28.5t71 -52.5q31 -31 48.5 -65.5 t25.5 -69.5t10 -69.5t2 -67.5v-408q0 -78 1 -122t3 -70.5t5.5 -41t7.5 -30.5h-234q-10 31 -13 68.5t-3 81.5l-115 -158q-29 -8 -54.5 -12.5t-68.5 -4.5q-92 0 -154.5 22.5t-103.5 57.5q-12 10 -29.5 28.5t-33 46.5t-25.5 64.5t-10 86.5zM199 1288v172l426 -162v-174z M285 289q0 -27 8 -53.5t28.5 -47t53.5 -33t80 -12.5q55 0 103 17.5t77 29.5v267q-16 2 -32.5 3t-33.5 1q-72 0 -107.5 -5t-53.5 -12q-66 -20 -94.5 -63t-28.5 -92z" />
<glyph unicode="&#xe1;" horiz-adv-x="980" d="M41 281q0 115 59.5 186.5t139.5 105.5q59 27 127.5 38.5t138.5 11.5q37 0 62.5 -2.5t66.5 -6.5q0 57 -7 103.5t-31 79t-66 50t-109 17.5q-86 0 -161 -22.5t-140 -48.5l125 213q43 10 109.5 21t138.5 11q27 0 63.5 -2t75.5 -11t78 -28.5t71 -52.5q31 -31 48.5 -65.5 t25.5 -69.5t10 -69.5t2 -67.5v-408q0 -78 1 -122t3 -70.5t5.5 -41t7.5 -30.5h-234q-10 31 -13 68.5t-3 81.5l-115 -158q-29 -8 -54.5 -12.5t-68.5 -4.5q-92 0 -154.5 22.5t-103.5 57.5q-12 10 -29.5 28.5t-33 46.5t-25.5 64.5t-10 86.5zM285 289q0 -27 8 -53.5t28.5 -47 t53.5 -33t80 -12.5q55 0 103 17.5t77 29.5v267q-16 2 -32.5 3t-33.5 1q-72 0 -107.5 -5t-53.5 -12q-66 -20 -94.5 -63t-28.5 -92zM358 1124v174l424 162v-172z" />
<glyph unicode="&#xe2;" horiz-adv-x="980" d="M41 281q0 115 59.5 186.5t139.5 105.5q59 27 127.5 38.5t138.5 11.5q37 0 62.5 -2.5t66.5 -6.5q0 57 -7 103.5t-31 79t-66 50t-109 17.5q-86 0 -161 -22.5t-140 -48.5l125 213q43 10 109.5 21t138.5 11q27 0 63.5 -2t75.5 -11t78 -28.5t71 -52.5q31 -31 48.5 -65.5 t25.5 -69.5t10 -69.5t2 -67.5v-408q0 -78 1 -122t3 -70.5t5.5 -41t7.5 -30.5h-234q-10 31 -13 68.5t-3 81.5l-115 -158q-29 -8 -54.5 -12.5t-68.5 -4.5q-92 0 -154.5 22.5t-103.5 57.5q-12 10 -29.5 28.5t-33 46.5t-25.5 64.5t-10 86.5zM271 1128v181l221 166l225 -166v-181 l-225 162zM285 289q0 -27 8 -53.5t28.5 -47t53.5 -33t80 -12.5q55 0 103 17.5t77 29.5v267q-16 2 -32.5 3t-33.5 1q-72 0 -107.5 -5t-53.5 -12q-66 -20 -94.5 -63t-28.5 -92z" />
<glyph unicode="&#xe3;" horiz-adv-x="980" d="M41 281q0 115 59.5 186.5t139.5 105.5q59 27 127.5 38.5t138.5 11.5q37 0 62.5 -2.5t66.5 -6.5q0 57 -7 103.5t-31 79t-66 50t-109 17.5q-86 0 -161 -22.5t-140 -48.5l125 213q43 10 109.5 21t138.5 11q27 0 63.5 -2t75.5 -11t78 -28.5t71 -52.5q31 -31 48.5 -65.5 t25.5 -69.5t10 -69.5t2 -67.5v-408q0 -78 1 -122t3 -70.5t5.5 -41t7.5 -30.5h-234q-10 31 -13 68.5t-3 81.5l-115 -158q-29 -8 -54.5 -12.5t-68.5 -4.5q-92 0 -154.5 22.5t-103.5 57.5q-12 10 -29.5 28.5t-33 46.5t-25.5 64.5t-10 86.5zM228 1157v164q20 18 54 41.5t93 23.5 q31 0 62.5 -10t62.5 -24q35 -14 60.5 -21.5t56.5 -7.5q39 0 71.5 13.5t65.5 35.5v-168q-16 -10 -50 -28.5t-85 -18.5q-37 0 -66.5 9.5t-60.5 21.5q-45 16 -68.5 23.5t-52.5 7.5q-49 0 -85 -21.5t-58 -40.5zM285 289q0 -27 8 -53.5t28.5 -47t53.5 -33t80 -12.5q55 0 103 17.5 t77 29.5v267q-16 2 -32.5 3t-33.5 1q-72 0 -107.5 -5t-53.5 -12q-66 -20 -94.5 -63t-28.5 -92z" />
<glyph unicode="&#xe4;" horiz-adv-x="980" d="M41 281q0 115 59.5 186.5t139.5 105.5q59 27 127.5 38.5t138.5 11.5q37 0 62.5 -2.5t66.5 -6.5q0 57 -7 103.5t-31 79t-66 50t-109 17.5q-86 0 -161 -22.5t-140 -48.5l125 213q43 10 109.5 21t138.5 11q27 0 63.5 -2t75.5 -11t78 -28.5t71 -52.5q31 -31 48.5 -65.5 t25.5 -69.5t10 -69.5t2 -67.5v-408q0 -78 1 -122t3 -70.5t5.5 -41t7.5 -30.5h-234q-10 31 -13 68.5t-3 81.5l-115 -158q-29 -8 -54.5 -12.5t-68.5 -4.5q-92 0 -154.5 22.5t-103.5 57.5q-12 10 -29.5 28.5t-33 46.5t-25.5 64.5t-10 86.5zM196 1264q0 53 38 87.5t89 34.5 q53 0 91 -34.5t38 -87.5t-37 -88t-92 -35q-51 0 -89 34.5t-38 88.5zM285 289q0 -27 8 -53.5t28.5 -47t53.5 -33t80 -12.5q55 0 103 17.5t77 29.5v267q-16 2 -32.5 3t-33.5 1q-72 0 -107.5 -5t-53.5 -12q-66 -20 -94.5 -63t-28.5 -92zM612 1264q0 53 38 87.5t89 34.5 q53 0 91 -33.5t38 -88.5q0 -53 -38 -88t-91 -35q-51 0 -89 34.5t-38 88.5z" />
<glyph unicode="&#xe5;" horiz-adv-x="980" d="M41 281q0 115 59.5 186.5t139.5 105.5q59 27 127.5 38.5t138.5 11.5q37 0 62.5 -2.5t66.5 -6.5q0 57 -7 103.5t-31 79t-66 50t-109 17.5q-86 0 -161 -22.5t-140 -48.5l125 213q43 10 109.5 21t138.5 11q27 0 63.5 -2t75.5 -11t78 -28.5t71 -52.5q31 -31 48.5 -65.5 t25.5 -69.5t10 -69.5t2 -67.5v-408q0 -78 1 -122t3 -70.5t5.5 -41t7.5 -30.5h-234q-10 31 -13 68.5t-3 81.5l-115 -158q-29 -8 -54.5 -12.5t-68.5 -4.5q-92 0 -154.5 22.5t-103.5 57.5q-12 10 -29.5 28.5t-33 46.5t-25.5 64.5t-10 86.5zM285 289q0 -27 8 -53.5t28.5 -47 t53.5 -33t80 -12.5q55 0 103 17.5t77 29.5v267q-16 2 -32.5 3t-33.5 1q-72 0 -107.5 -5t-53.5 -12q-66 -20 -94.5 -63t-28.5 -92zM337 1319q0 39 14.5 73.5t40 61.5t60.5 42t76 15q82 0 137 -55t55 -137q0 -80 -53 -136.5t-137 -56.5q-43 0 -78 15.5t-60.5 42t-40 61.5 t-14.5 74zM430 1319q0 -43 28.5 -71.5t69.5 -28.5q43 0 71.5 28.5t28.5 71.5q0 41 -27.5 69.5t-70.5 28.5q-47 0 -73.5 -28.5t-26.5 -69.5z" />
<glyph unicode="&#xe6;" horiz-adv-x="1622" d="M41 295q0 80 35 145.5t90 106.5q47 37 103.5 56.5t118 28.5t126 10t129.5 1q0 33 -4 71t-25.5 71.5t-65.5 56t-122 22.5q-70 0 -144.5 -20.5t-152.5 -48.5l121 206q66 16 127 25.5t127 9.5q47 0 80.5 -5t56.5 -11q45 -12 74.5 -29.5t49 -35t29 -34t15.5 -26.5 q16 16 40.5 39.5t70.5 48.5q53 29 108 42t111 13q129 0 215 -50t131 -107q66 -82 87 -183.5t19 -205.5h-700q2 -29 6 -61t14.5 -65.5t30 -66.5t51.5 -63q33 -31 71 -48.5t74 -26.5t66.5 -11.5t52.5 -2.5q106 0 187.5 26t116.5 40l-119 -205q-43 -12 -86 -19t-80 -10.5 t-62.5 -3.5h-31.5q-90 0 -170 21q-61 14 -106.5 36.5t-77 47t-53 46t-34.5 38.5l-120 -162q-31 -10 -74 -18.5t-109 -8.5q-84 0 -154.5 18.5t-121.5 55.5q-49 37 -85 98.5t-36 147.5zM285 297q0 -82 60.5 -119t146.5 -37q51 0 114.5 16.5t112.5 45.5q-35 55 -53.5 116.5 t-20.5 172.5q-78 -4 -156.5 -12.5t-130.5 -45.5q-29 -20 -51 -54t-22 -83zM895 643h451q-2 23 -12.5 71t-47.5 91q-55 66 -156 65q-47 0 -83.5 -15t-61.5 -38t-41 -47.5t-26.5 -49t-15.5 -45t-7 -32.5z" />
<glyph unicode="&#xe7;" horiz-adv-x="894" d="M51 500q0 102 35 199.5t103.5 172t172 120.5t240.5 46q41 0 113.5 -9t158.5 -44v-215q-12 10 -33.5 25.5t-52 29t-70.5 23.5t-89 10q-74 0 -133.5 -26.5t-101.5 -73.5t-63.5 -111.5t-21.5 -140.5q0 -74 23.5 -139.5t67.5 -113.5t111 -77t153 -29q63 0 120.5 15.5 t128.5 38.5l-114 -193q-29 -10 -82 -21.5t-131 -11.5q-109 0 -206 35t-170 102.5t-116 165t-43 222.5zM276 -383l162 301h217l-215 -301h-164z" />
<glyph unicode="&#xe8;" horiz-adv-x="1024" d="M51 502q0 117 35 216t98.5 169.5t153.5 110.5t201 40q53 0 106 -10t103 -33q92 -43 141 -109.5t72.5 -138t28.5 -141t5 -114.5h-686q2 -25 6 -57t14.5 -65.5t29 -67.5t49.5 -64q53 -49 122.5 -68.5t141.5 -19.5q104 0 181 24.5t108 36.5l-117 -203q-117 -33 -244 -33 q-137 0 -239.5 39t-171 110t-103.5 167t-35 211zM219 1288v172l426 -162v-174zM313 643h437q0 14 -2.5 33.5t-8.5 43t-17 47.5t-32 46q-57 61 -147 61q-94 0 -152.5 -65.5t-77.5 -165.5z" />
<glyph unicode="&#xe9;" horiz-adv-x="1024" d="M51 502q0 117 35 216t98.5 169.5t153.5 110.5t201 40q53 0 106 -10t103 -33q92 -43 141 -109.5t72.5 -138t28.5 -141t5 -114.5h-686q2 -25 6 -57t14.5 -65.5t29 -67.5t49.5 -64q53 -49 122.5 -68.5t141.5 -19.5q104 0 181 24.5t108 36.5l-117 -203q-117 -33 -244 -33 q-137 0 -239.5 39t-171 110t-103.5 167t-35 211zM313 643h437q0 14 -2.5 33.5t-8.5 43t-17 47.5t-32 46q-57 61 -147 61q-94 0 -152.5 -65.5t-77.5 -165.5zM379 1124v174l424 162v-172z" />
<glyph unicode="&#xea;" horiz-adv-x="1024" d="M51 502q0 117 35 216t98.5 169.5t153.5 110.5t201 40q53 0 106 -10t103 -33q92 -43 141 -109.5t72.5 -138t28.5 -141t5 -114.5h-686q2 -25 6 -57t14.5 -65.5t29 -67.5t49.5 -64q53 -49 122.5 -68.5t141.5 -19.5q104 0 181 24.5t108 36.5l-117 -203q-117 -33 -244 -33 q-137 0 -239.5 39t-171 110t-103.5 167t-35 211zM312 1128v181l221 166l225 -166v-181l-225 162zM313 643h437q0 14 -2.5 33.5t-8.5 43t-17 47.5t-32 46q-57 61 -147 61q-94 0 -152.5 -65.5t-77.5 -165.5z" />
<glyph unicode="&#xeb;" horiz-adv-x="1024" d="M51 502q0 117 35 216t98.5 169.5t153.5 110.5t201 40q53 0 106 -10t103 -33q92 -43 141 -109.5t72.5 -138t28.5 -141t5 -114.5h-686q2 -25 6 -57t14.5 -65.5t29 -67.5t49.5 -64q53 -49 122.5 -68.5t141.5 -19.5q104 0 181 24.5t108 36.5l-117 -203q-117 -33 -244 -33 q-137 0 -239.5 39t-171 110t-103.5 167t-35 211zM176 1264q0 53 38 87.5t89 34.5q53 0 91 -34.5t38 -87.5t-37 -88t-92 -35q-51 0 -89 34.5t-38 88.5zM313 643h437q0 14 -2.5 33.5t-8.5 43t-17 47.5t-32 46q-57 61 -147 61q-94 0 -152.5 -65.5t-77.5 -165.5zM592 1264 q0 53 38 87.5t89 34.5q53 0 91 -33.5t38 -88.5q0 -53 -38 -88t-91 -35q-51 0 -89 34.5t-38 88.5z" />
<glyph unicode="&#xec;" horiz-adv-x="468" d="M-55 1288v172l426 -162v-174zM115 0v1012h239v-1012h-239z" />
<glyph unicode="&#xed;" horiz-adv-x="468" d="M102 1124v174l424 162v-172zM115 0v1012h239v-1012h-239z" />
<glyph unicode="&#xee;" horiz-adv-x="468" d="M17 1128v181l221 166l225 -166v-181l-225 162zM115 0v1012h239v-1012h-239z" />
<glyph unicode="&#xef;" horiz-adv-x="468" d="M-98 1264q0 53 38 87.5t89 34.5q53 0 91 -34.5t38 -87.5t-37 -88t-92 -35q-51 0 -89 34.5t-38 88.5zM115 0v1012h239v-1012h-239zM318 1264q0 53 38 87.5t89 34.5q53 0 91 -33.5t38 -88.5q0 -53 -38 -88t-91 -35q-51 0 -89 34.5t-38 88.5z" />
<glyph unicode="&#xf0;" horiz-adv-x="1110" d="M59 502q0 113 35 211t96.5 169.5t146.5 112.5t187 41q61 0 104.5 -13t76.5 -30q-14 37 -35 80t-64 103l-282 -95l-60 123l250 82q-37 39 -66.5 60.5t-56.5 39.5l221 95q47 -31 77 -58.5t61 -58.5l163 53l58 -119l-131 -45q70 -98 112.5 -194t67 -186.5t34 -170 t9.5 -143.5q0 -135 -34 -243.5t-98.5 -183.5t-160.5 -116t-219 -41q-115 0 -206 39t-154.5 110t-97.5 167t-34 211zM313 522q0 -43 4.5 -85t16.5 -83q16 -59 42.5 -99t58.5 -63.5t66 -32.5t64 -9q109 0 176.5 91t67.5 257q0 63 -12.5 127.5t-42 118t-77.5 87t-118 33.5 t-117 -31.5t-75.5 -81t-41 -109.5t-12.5 -120z" />
<glyph unicode="&#xf1;" d="M115 0v1012h239v-193l131 185q59 23 118 27.5t87 4.5q109 0 177.5 -31.5t106.5 -86t51 -126t13 -151.5v-641h-239v575q0 57 -7.5 107.5t-31 87.5t-65.5 58.5t-111 21.5q-55 0 -115.5 -19.5t-114.5 -56.5v-774h-239zM311 1157v164q20 18 54 41.5t93 23.5q31 0 62.5 -10 t62.5 -24q35 -14 60.5 -21.5t56.5 -7.5q39 0 71.5 13.5t65.5 35.5v-168q-16 -10 -50 -28.5t-85 -18.5q-37 0 -66.5 9.5t-60.5 21.5q-45 16 -68.5 23.5t-52.5 7.5q-49 0 -85 -21.5t-58 -40.5z" />
<glyph unicode="&#xf2;" horiz-adv-x="1110" d="M51 496q0 113 35 212t101.5 171.5t161.5 114.5t216 42q111 0 201 -36.5t155.5 -105.5t101.5 -165t36 -215q0 -113 -32 -211t-95.5 -171t-158.5 -115t-220 -42t-219 41t-156.5 112t-94.5 165t-32 203zM262 1288v172l426 -162v-174zM307 504q0 -59 11.5 -126t46.5 -122 t86 -80.5t106 -25.5q63 0 110.5 29.5t78 79.5t45 114.5t14.5 136.5q0 70 -13.5 134.5t-43 113.5t-76.5 77.5t-113 28.5h-4q-61 -2 -109.5 -28.5t-83.5 -85.5q-35 -55 -45 -118t-10 -128z" />
<glyph unicode="&#xf3;" horiz-adv-x="1110" d="M51 496q0 113 35 212t101.5 171.5t161.5 114.5t216 42q111 0 201 -36.5t155.5 -105.5t101.5 -165t36 -215q0 -113 -32 -211t-95.5 -171t-158.5 -115t-220 -42t-219 41t-156.5 112t-94.5 165t-32 203zM307 504q0 -59 11.5 -126t46.5 -122t86 -80.5t106 -25.5 q63 0 110.5 29.5t78 79.5t45 114.5t14.5 136.5q0 70 -13.5 134.5t-43 113.5t-76.5 77.5t-113 28.5h-4q-61 -2 -109.5 -28.5t-83.5 -85.5q-35 -55 -45 -118t-10 -128zM422 1124v174l424 162v-172z" />
<glyph unicode="&#xf4;" horiz-adv-x="1110" d="M51 496q0 113 35 212t101.5 171.5t161.5 114.5t216 42q111 0 201 -36.5t155.5 -105.5t101.5 -165t36 -215q0 -113 -32 -211t-95.5 -171t-158.5 -115t-220 -42t-219 41t-156.5 112t-94.5 165t-32 203zM307 504q0 -59 11.5 -126t46.5 -122t86 -80.5t106 -25.5 q63 0 110.5 29.5t78 79.5t45 114.5t14.5 136.5q0 70 -13.5 134.5t-43 113.5t-76.5 77.5t-113 28.5h-4q-61 -2 -109.5 -28.5t-83.5 -85.5q-35 -55 -45 -118t-10 -128zM334 1128v181l221 166l225 -166v-181l-225 162z" />
<glyph unicode="&#xf5;" horiz-adv-x="1110" d="M51 496q0 113 35 212t101.5 171.5t161.5 114.5t216 42q111 0 201 -36.5t155.5 -105.5t101.5 -165t36 -215q0 -113 -32 -211t-95.5 -171t-158.5 -115t-220 -42t-219 41t-156.5 112t-94.5 165t-32 203zM291 1157v164q20 18 54 41.5t93 23.5q31 0 62.5 -10t62.5 -24 q35 -14 60.5 -21.5t56.5 -7.5q39 0 71.5 13.5t65.5 35.5v-168q-16 -10 -50 -28.5t-85 -18.5q-37 0 -66.5 9.5t-60.5 21.5q-45 16 -68.5 23.5t-52.5 7.5q-49 0 -85 -21.5t-58 -40.5zM307 504q0 -59 11.5 -126t46.5 -122t86 -80.5t106 -25.5q63 0 110.5 29.5t78 79.5t45 114.5 t14.5 136.5q0 70 -13.5 134.5t-43 113.5t-76.5 77.5t-113 28.5h-4q-61 -2 -109.5 -28.5t-83.5 -85.5q-35 -55 -45 -118t-10 -128z" />
<glyph unicode="&#xf6;" horiz-adv-x="1110" d="M51 496q0 113 35 212t101.5 171.5t161.5 114.5t216 42q111 0 201 -36.5t155.5 -105.5t101.5 -165t36 -215q0 -113 -32 -211t-95.5 -171t-158.5 -115t-220 -42t-219 41t-156.5 112t-94.5 165t-32 203zM221 1264q0 53 38 87.5t89 34.5q53 0 91 -34.5t38 -87.5t-37 -88 t-92 -35q-51 0 -89 34.5t-38 88.5zM307 504q0 -59 11.5 -126t46.5 -122t86 -80.5t106 -25.5q63 0 110.5 29.5t78 79.5t45 114.5t14.5 136.5q0 70 -13.5 134.5t-43 113.5t-76.5 77.5t-113 28.5h-4q-61 -2 -109.5 -28.5t-83.5 -85.5q-35 -55 -45 -118t-10 -128zM637 1264 q0 53 38 87.5t89 34.5q53 0 91 -33.5t38 -88.5q0 -53 -38 -88t-91 -35q-51 0 -89 34.5t-38 88.5z" />
<glyph unicode="&#xf7;" horiz-adv-x="1366" d="M0 514v162h1364v-162h-1364zM569 297q0 47 32 82t85 35q51 0 83 -34t32 -81q0 -45 -31 -80t-86 -35q-49 0 -82 33t-33 80zM569 889q0 47 32 82t85 35q51 0 83 -34t32 -81q0 -45 -31 -80t-86 -35q-49 0 -82 33t-33 80z" />
<glyph unicode="&#xf8;" horiz-adv-x="1110" d="M4 51l129 133q-25 43 -53.5 114t-28.5 194q0 113 35 212t100.5 172.5t161.5 116.5t219 43q66 0 116 -11t86 -26.5t59.5 -33t35.5 -27.5l135 137l111 -110l-137 -142q8 -14 23.5 -38.5t28.5 -62.5t23.5 -90t10.5 -120q0 -115 -34 -213t-98.5 -170t-158.5 -113t-213 -41 q-70 0 -123 11.5t-90 27t-60.5 30.5t-35.5 26l-131 -131zM299 520q0 -51 6 -90t10 -61l410 428q-6 6 -20.5 18t-36 24.5t-49 21.5t-64.5 9q-63 0 -111.5 -27.5t-80 -75.5t-48 -111.5t-16.5 -135.5zM387 217q6 -8 18.5 -20.5t32 -24.5t47 -21.5t66.5 -9.5q76 0 126 35 t80.5 88t43 116.5t12.5 121.5q0 49 -6 80.5t-14 60.5z" />
<glyph unicode="&#xf9;" d="M115 340v672h241v-588q0 -55 6.5 -102.5t28 -83t61.5 -56t109 -20.5q59 0 124 21.5t114 56.5v772h239v-1012h-239v193l-129 -185q-63 -23 -116.5 -28t-84.5 -5q-18 0 -48 2.5t-63.5 10.5t-70.5 25.5t-70 45.5q-37 33 -57.5 68t-30.5 72t-12 72.5t-2 68.5zM283 1288v172 l426 -162v-174z" />
<glyph unicode="&#xfa;" d="M115 340v672h241v-588q0 -55 6.5 -102.5t28 -83t61.5 -56t109 -20.5q59 0 124 21.5t114 56.5v772h239v-1012h-239v193l-129 -185q-63 -23 -116.5 -28t-84.5 -5q-18 0 -48 2.5t-63.5 10.5t-70.5 25.5t-70 45.5q-37 33 -57.5 68t-30.5 72t-12 72.5t-2 68.5zM442 1124v174 l424 162v-172z" />
<glyph unicode="&#xfb;" d="M115 340v672h241v-588q0 -55 6.5 -102.5t28 -83t61.5 -56t109 -20.5q59 0 124 21.5t114 56.5v772h239v-1012h-239v193l-129 -185q-63 -23 -116.5 -28t-84.5 -5q-18 0 -48 2.5t-63.5 10.5t-70.5 25.5t-70 45.5q-37 33 -57.5 68t-30.5 72t-12 72.5t-2 68.5zM355 1128v181 l221 166l225 -166v-181l-225 162z" />
<glyph unicode="&#xfc;" d="M115 340v672h241v-588q0 -55 6.5 -102.5t28 -83t61.5 -56t109 -20.5q59 0 124 21.5t114 56.5v772h239v-1012h-239v193l-129 -185q-63 -23 -116.5 -28t-84.5 -5q-18 0 -48 2.5t-63.5 10.5t-70.5 25.5t-70 45.5q-37 33 -57.5 68t-30.5 72t-12 72.5t-2 68.5zM252 1264 q0 53 38 87.5t89 34.5q53 0 91 -34.5t38 -87.5t-37 -88t-92 -35q-51 0 -89 34.5t-38 88.5zM668 1264q0 53 38 87.5t89 34.5q53 0 91 -33.5t38 -88.5q0 -53 -38 -88t-91 -35q-51 0 -89 34.5t-38 88.5z" />
<glyph unicode="&#xfd;" horiz-adv-x="1024" d="M0 1012h256l268 -770l254 770h246l-395 -1030q-25 -61 -57.5 -130t-87 -125.5t-138.5 -94.5t-213 -38q-35 0 -59.5 3.5t-53.5 7.5l62 176q35 -4 47 -4h21q49 0 86.5 19.5t66.5 51t50.5 72.5t37.5 84zM379 1124v174l424 162v-172z" />
<glyph unicode="&#xfe;" d="M115 -428v1874h241v-604l117 168q31 10 64.5 18t93.5 8q111 0 199 -36.5t147 -104.5t91 -162t32 -207q0 -125 -36 -226t-101.5 -174t-155.5 -112t-199 -39q-92 0 -151.5 22.5t-100.5 43.5v-469h-241zM356 221q18 -12 68.5 -36.5t130.5 -24.5q74 0 128 28.5t91 77.5 t55.5 114.5t18.5 139.5q0 78 -19.5 137.5t-50.5 100.5q-29 37 -83 68.5t-140 31.5q-51 0 -101.5 -13.5t-97.5 -35.5v-588z" />
<glyph unicode="&#xff;" horiz-adv-x="1024" d="M0 1012h256l268 -770l254 770h246l-395 -1030q-25 -61 -57.5 -130t-87 -125.5t-138.5 -94.5t-213 -38q-35 0 -59.5 3.5t-53.5 7.5l62 176q35 -4 47 -4h21q49 0 86.5 19.5t66.5 51t50.5 72.5t37.5 84zM176 1264q0 53 38 87.5t89 34.5q53 0 91 -34.5t38 -87.5t-37 -88 t-92 -35q-51 0 -89 34.5t-38 88.5zM592 1264q0 53 38 87.5t89 34.5q53 0 91 -33.5t38 -88.5q0 -53 -38 -88t-91 -35q-51 0 -89 34.5t-38 88.5z" />
<glyph unicode="&#x152;" horiz-adv-x="2048" d="M63 711q0 53 9.5 121.5t34 144.5t70.5 152.5t120 146.5q78 74 160 114t155.5 59t134 23.5t95.5 4.5q74 0 131 -8.5t125 -20.5h848v-205h-582v-383h502v-205h-502v-448h682l-125 -207h-842q-35 -8 -64.5 -13t-58.5 -10q-29 -4 -57.5 -6t-64.5 -2q-186 0 -330 58.5 t-242 160t-148.5 235.5t-50.5 288zM352 719q0 -133 39 -235.5t106.5 -173t160 -107.5t198.5 -37q39 0 104.5 8t137.5 39v1020q-39 14 -100.5 31.5t-139.5 17.5q-104 0 -196.5 -38t-161 -109.5t-108.5 -176t-40 -239.5z" />
<glyph unicode="&#x153;" horiz-adv-x="1792" d="M51 494q0 115 35 214t100.5 171.5t160.5 114.5t218 42q94 0 157.5 -22.5t104.5 -44.5q47 -29 69 -55.5t38 -49.5q18 23 45 51.5t78 57.5q66 37 127 50t119 13q49 0 100 -8t100 -31q94 -41 146.5 -109.5t77 -142t29.5 -143.5t5 -113h-694q2 -31 12.5 -88t46 -112.5 t107.5 -97t199 -41.5q78 0 152.5 17t146.5 46l-119 -203q-78 -23 -141.5 -29t-104.5 -6q-74 0 -153.5 15.5t-147.5 50.5q-59 31 -86 60.5t-45 54.5q-16 -23 -40 -51.5t-75 -59.5q-78 -47 -151.5 -58.5t-122.5 -11.5q-111 0 -202 35t-155.5 100.5t-100.5 163t-36 220.5z M303 504q0 -53 5 -89t11 -59q23 -92 81.5 -149t154.5 -57q121 0 188.5 93t67.5 259q0 76 -15.5 142.5t-47 114.5t-79.5 75.5t-112 27.5q-66 0 -114 -29.5t-78.5 -78.5t-46 -114t-15.5 -136zM1071 641h445q-4 98 -55.5 164.5t-157.5 66.5q-31 0 -66 -10t-66.5 -35.5 t-58.5 -70.5t-41 -115z" />
<glyph unicode="&#x178;" horiz-adv-x="1323" d="M0 1446h297l377 -653l373 653h276l-524 -899v-547h-273v547zM326 1667q0 53 38 88t89 35q53 0 91 -35t38 -88t-37 -88t-92 -35q-51 0 -89 35t-38 88zM741 1667q0 53 38 88t89 35q53 0 91 -34t38 -89q0 -53 -37.5 -88t-91.5 -35q-51 0 -89 35t-38 88z" />
<glyph unicode="&#x2c6;" horiz-adv-x="598" d="M76 1128v181l221 166l225 -166v-181l-225 162z" />
<glyph unicode="&#x2dc;" horiz-adv-x="598" d="M35 1157v164q20 18 54 41.5t93 23.5q31 0 62.5 -10t62.5 -24q35 -14 60.5 -21.5t56.5 -7.5q39 0 71.5 13.5t65.5 35.5v-168q-16 -10 -50 -28.5t-85 -18.5q-37 0 -66.5 9.5t-60.5 21.5q-45 16 -68.5 23.5t-52.5 7.5q-49 0 -85 -21.5t-58 -40.5z" />
<glyph unicode="&#x2000;" horiz-adv-x="957" />
<glyph unicode="&#x2001;" horiz-adv-x="1915" />
<glyph unicode="&#x2002;" horiz-adv-x="957" />
<glyph unicode="&#x2003;" horiz-adv-x="1915" />
<glyph unicode="&#x2004;" horiz-adv-x="638" />
<glyph unicode="&#x2005;" horiz-adv-x="478" />
<glyph unicode="&#x2006;" horiz-adv-x="319" />
<glyph unicode="&#x2007;" horiz-adv-x="319" />
<glyph unicode="&#x2008;" horiz-adv-x="239" />
<glyph unicode="&#x2009;" horiz-adv-x="383" />
<glyph unicode="&#x200a;" horiz-adv-x="106" />
<glyph unicode="&#x2010;" horiz-adv-x="681" d="M8 451l121 167h545l-119 -167h-547z" />
<glyph unicode="&#x2011;" horiz-adv-x="681" d="M8 451l121 167h545l-119 -167h-547z" />
<glyph unicode="&#x2012;" horiz-adv-x="681" d="M8 451l121 167h545l-119 -167h-547z" />
<glyph unicode="&#x2013;" horiz-adv-x="1193" d="M8 451l119 167h1059l-119 -167h-1059z" />
<glyph unicode="&#x2014;" horiz-adv-x="1492" d="M8 451l119 167h1358l-117 -167h-1360z" />
<glyph unicode="&#x2018;" horiz-adv-x="425" d="M27 1014l237 432h137l-165 -432h-209z" />
<glyph unicode="&#x2019;" horiz-adv-x="425" d="M25 1014l168 432h206l-235 -432h-139z" />
<glyph unicode="&#x201a;" horiz-adv-x="425" d="M25 -205l168 432h206l-235 -432h-139z" />
<glyph unicode="&#x201c;" horiz-adv-x="768" d="M27 1014l237 432h137l-165 -432h-209zM369 1014l235 432h139l-168 -432h-206z" />
<glyph unicode="&#x201d;" horiz-adv-x="768" d="M25 1014l168 432h206l-237 -432h-137zM367 1014l165 432h209l-237 -432h-137z" />
<glyph unicode="&#x201e;" horiz-adv-x="768" d="M8 -205l168 432h207l-238 -432h-137zM348 -205l168 432h207l-236 -432h-139z" />
<glyph unicode="&#x2022;" horiz-adv-x="681" d="M76 723q0 51 19.5 99t55 85t86 59.5t109.5 22.5q55 0 102.5 -20.5t83 -55t56 -84t20.5 -106.5q0 -53 -18.5 -101.5t-52 -85t-82.5 -58t-109 -21.5q-61 0 -110.5 21.5t-85 58t-55 85t-19.5 101.5z" />
<glyph unicode="&#x2026;" horiz-adv-x="2048" d="M207 119q0 53 38 95t97 42t97 -40t38 -97q0 -59 -39 -98t-96 -39q-59 0 -97 40.5t-38 96.5zM889 119q0 53 38 95t97 42t97 -40t38 -97q0 -59 -39 -98t-96 -39q-59 0 -97 40.5t-38 96.5zM1571 119q0 53 38 95t97 42t97 -40t38 -97q0 -59 -39 -98t-96 -39q-59 0 -97 40.5 t-38 96.5z" />
<glyph unicode="&#x202f;" horiz-adv-x="383" />
<glyph unicode="&#x2039;" horiz-adv-x="512" d="M39 537l221 319h215l-221 -321l221 -322h-215z" />
<glyph unicode="&#x203a;" horiz-adv-x="512" d="M37 213l221 322l-221 321h215l221 -321l-221 -322h-215z" />
<glyph unicode="&#x205f;" horiz-adv-x="478" />
<glyph unicode="&#x2122;" horiz-adv-x="1406" d="M33 1346v100h553v-100h-215v-580h-119v580h-219zM643 766v680h162l170 -537l166 537h162v-680h-117l4 422q0 39 2 77t4 60l-7 -24.5t-6 -21.5t-7.5 -26.5t-12.5 -42.5l-139 -444h-104l-142 444q-2 6 -4 12.5t-5 17.5t-9 30.5t-15 52.5q4 -35 5.5 -73t3.5 -62l4 -422h-115 z" />
<glyph unicode="&#x25fc;" horiz-adv-x="1013" d="M0 0v1014h1014v-1014h-1014z" />
</font>
</defs>
</svg>
